999
DXF file: mpi_akiii_m-733-835-01.dxf
999
Pro/ENGINEER 2014000 by Parametric Technology Corporation
  0
SECTION
  2
HEADER
  9
$ACADVER
  1
AC1021
  9
$DWGCODEPAGE
  3
ANSI_1252
  9
$EXTMAX
 10
420.0
 20
297.0
 30
0.0
  9
$EXTMIN
 10
0.0
 20
0.0
 30
0.0
  9
$LIMMIN
 10
0.0
 20
0.0
  9
$LIMMAX
 10
420.0
 20
297.0
  9
$VIEWCTR
 10
210.0
 20
148.5
  9
$VIEWSIZE
 40
297.0
  9
$CLAYER
  8
0
  9
$LTSCALE
 40
23.1
  9
$CELTYPE
  6
BYLAYER
  9
$DIMSCALE
 40
1.0
  9
$DIMASZ
 40
3.5
  9
$DIMEXO
 40
0.0
  9
$DIMDLI
 40
15.96
  9
$DIMEXE
 40
1.5
  9
$DIMCEN
 40
3.78
  9
$DIMLFAC
 40
1.0
  9
$DIMBLK
  1
_FILLED
  9
$DIMTXT
 40
2.5
  9
$DIMTOL
 70
1
  9
$DIMLIM
 70
0
  9
$DIMTFAC
 40
1.0
  9
$DIMTP
 40
0.005
  9
$DIMTM
 40
0.005
  9
$DIMGAP
 40
0.625
  9
$DIMDSEP
 70
46
  9
$PDMODE
 70
3
  9
$PDSIZE
 40
0.3125
  9
$HANDSEED
  5
3DA
  9
$TILEMODE
 70
1
  9
$MEASUREMENT
 70
1
  9
$INSUNITS
 70
4
  0
ENDSEC
  0
SECTION
  2
CLASSES
  0
CLASS
  1
ACDBDICTIONARYWDFLT
  2
AcDbDictionaryWithDefault
  3
AutoCAD 2000
 90
0
 91
1
280
0
281
0
  0
CLASS
  1
ACDBPLACEHOLDER
  2
AcDbPlaceHolder
  3
AutoCAD 2000
 90
0
 91
1
280
0
281
0
  0
CLASS
  1
LAYOUT
  2
AcDbLayout
  3
AutoCAD 2000
 90
0
 91
0
280
0
281
0
  0
CLASS
  1
TABLESTYLE
  2
AcDbTableStyle
  3
ObjectDBX Classes
 90
2047
 91
1
280
0
281
0
  0
CLASS
  1
ACAD_TABLE
  2
AcDbTable
  3
ObjectDBX Classes
 90
1025
 91
1
280
0
281
1
  0
ENDSEC
  0
SECTION
  2
TABLES
  0
TABLE
  2
VPORT
  5
8
100
AcDbSymbolTable
 70
2
  0
VPORT
  5
1F4
100
AcDbSymbolTableRecord
100
AcDbViewportTableRecord
  2
*ACTIVE
 70
0
 10
0.0
 20
0.0
 11
1.0
 21
1.0
 12
210.0
 22
148.5
 13
0.0
 23
0.0
 14
1.0
 24
1.0
 15
0.0
 25
0.0
 16
0.0
 26
0.0
 36
1.0
 17
0.0
 27
0.0
 37
0.0
 40
297.0
 41
1.4141414141
 42
50.0
 43
0.0
 44
0.0
 50
0.0
 51
0.0
 71
0
 72
100
 73
1
 74
1
 75
0
 76
0
 77
0
 78
0
  0
ENDTAB
  0
TABLE
  2
LTYPE
  5
5
100
AcDbSymbolTable
 70
6
  0
LTYPE
  5
14
100
AcDbSymbolTableRecord
100
AcDbLinetypeTableRecord
  2
BYBLOCK
 70
0
  3

 72
65
 73
0
 40
0.0
  0
LTYPE
  5
15
100
AcDbSymbolTableRecord
100
AcDbLinetypeTableRecord
  2
BYLAYER
 70
0
  3

 72
65
 73
0
 40
0.0
  0
LTYPE
  5
16
100
AcDbSymbolTableRecord
100
AcDbLinetypeTableRecord
  2
CONTINUOUS
 70
64
  3
Solid line
 72
65
 73
0
 40
0.0
  0
LTYPE
  5
1F5
100
AcDbSymbolTableRecord
100
AcDbLinetypeTableRecord
  2
CENTER
 70
64
  3
____ _ ____ _ ____ _ ____ _ ____ _ ____ _ ____
 72
65
 73
4
 40
0.6
 49
0.375
 74
0
 49
-0.075
 74
0
 49
0.075
 74
0
 49
-0.075
 74
0
  0
LTYPE
  5
1F6
100
AcDbSymbolTableRecord
100
AcDbLinetypeTableRecord
  2
HIDDEN
 70
64
  3
- - - - - - - - - - - - - - - - - - - -
 72
65
 73
2
 40
0.2
 49
0.1
 74
0
 49
-0.1
 74
0
  0
LTYPE
  5
1F7
100
AcDbSymbolTableRecord
100
AcDbLinetypeTableRecord
  2
PHANTOM
 70
64
  3
_____ _ _ _____ _ _ _____ _ _ _____
 72
65
 73
6
 40
0.8
 49
0.45
 74
0
 49
-0.05
 74
0
 49
0.1
 74
0
 49
-0.05
 74
0
 49
0.1
 74
0
 49
-0.05
 74
0
  0
LTYPE
  5
1F8
100
AcDbSymbolTableRecord
100
AcDbLinetypeTableRecord
  2
DOT
 70
64
  3
. . . . . . . . . . . . . . . . . . . .
 72
65
 73
2
 40
0.2
 49
0.1
 74
0
 49
-0.1
 74
0
  0
LTYPE
  5
1F9
100
AcDbSymbolTableRecord
100
AcDbLinetypeTableRecord
  2
DASHED
 70
64
  3
- - - - - - - - - - - - - - - - - - - -
 72
65
 73
2
 40
0.2
 49
0.1
 74
0
 49
-0.1
 74
0
  0
ENDTAB
  0
TABLE
  2
LAYER
  5
2
100
AcDbSymbolTable
 70
36
  0
LAYER
  5
10
100
AcDbSymbolTableRecord
100
AcDbLayerTableRecord
  2
0
 70
0
 62
7
  6
CONTINUOUS
370
-3
390
F
  0
LAYER
  5
1FA
100
AcDbSymbolTableRecord
100
AcDbLayerTableRecord
  2
DEFAULT_1
 70
0
 62
7
  6
CENTER
370
-3
390
F
  0
LAYER
  5
1FB
100
AcDbSymbolTableRecord
100
AcDbLayerTableRecord
  2
DEFAULT_2
 70
0
 62
8
  6
HIDDEN
370
-3
390
F
  0
LAYER
  5
1FC
100
AcDbSymbolTableRecord
100
AcDbLayerTableRecord
  2
DEFAULT_3
 70
0
 62
7
  6
PHANTOM
370
-3
390
F
  0
LAYER
  5
1FD
100
AcDbSymbolTableRecord
100
AcDbLayerTableRecord
  2
BEZUGSACHSEN
 70
0
 62
7
  6
CONTINUOUS
370
-3
390
F
  0
LAYER
  5
1FE
100
AcDbSymbolTableRecord
100
AcDbLayerTableRecord
  2
BEZUGSEBENEN
 70
0
 62
7
  6
CONTINUOUS
370
-3
390
F
  0
LAYER
  5
1FF
100
AcDbSymbolTableRecord
100
AcDbLayerTableRecord
  2
BG_STARTBEZUEGE
 70
0
 62
7
  6
CONTINUOUS
370
-3
390
F
  0
LAYER
  5
200
100
AcDbSymbolTableRecord
100
AcDbLayerTableRecord
  2
BOHRUNGEN
 70
0
 62
7
  6
CONTINUOUS
370
-3
390
F
  0
LAYER
  5
201
100
AcDbSymbolTableRecord
100
AcDbLayerTableRecord
  2
FASEN
 70
0
 62
7
  6
CONTINUOUS
370
-3
390
F
  0
LAYER
  5
202
100
AcDbSymbolTableRecord
100
AcDbLayerTableRecord
  2
GEWINDE
 70
0
 62
7
  6
CONTINUOUS
370
-3
390
F
  0
LAYER
  5
203
100
AcDbSymbolTableRecord
100
AcDbLayerTableRecord
  2
HILFEN
 70
0
 62
7
  6
CONTINUOUS
370
-3
390
F
  0
LAYER
  5
204
100
AcDbSymbolTableRecord
100
AcDbLayerTableRecord
  2
KURVEN
 70
0
 62
7
  6
CONTINUOUS
370
-3
390
F
  0
LAYER
  5
205
100
AcDbSymbolTableRecord
100
AcDbLayerTableRecord
  2
TEIL_STARTBEZUEGE
 70
0
 62
7
  6
CONTINUOUS
370
-3
390
F
  0
LAYER
  5
206
100
AcDbSymbolTableRecord
100
AcDbLayerTableRecord
  2
ZEICHNUNGSBEMASSUNGEN
 70
0
 62
7
  6
CONTINUOUS
370
-3
390
F
  0
ENDTAB
  0
TABLE
  2
STYLE
  5
3
100
AcDbSymbolTable
 70
1
  0
STYLE
  5
11
100
AcDbSymbolTableRecord
100
AcDbTextStyleTableRecord
  2
STANDARD
 70
0
 40
0.0
 41
0.7
 50
0.0
 71
0
 42
0.2
  3
txt
  4

  0
STYLE
  5
207
100
AcDbSymbolTableRecord
100
AcDbTextStyleTableRecord
  2
TEXTSTYLE_1
 70
0
 40
0.0
 41
0.8
 50
0.0
 71
0
 42
0.2
  3
gdt
  4

  0
STYLE
  5
208
100
AcDbSymbolTableRecord
100
AcDbTextStyleTableRecord
  2
TEXTSTYLE_2
 70
0
 40
0.0
 41
0.7
 50
0.0
 71
0
 42
0.2
  3
gdt
  4

  0
STYLE
  5
209
100
AcDbSymbolTableRecord
100
AcDbTextStyleTableRecord
  2
TEXTSTYLE_3
 70
0
 40
0.0
 41
0.7
 50
0.0
 71
0
 42
0.2
  3
txt
  4

  0
STYLE
  5
20A
100
AcDbSymbolTableRecord
100
AcDbTextStyleTableRecord
  2
TEXTSTYLE_4
 70
0
 40
0.0
 41
0.8
 50
0.0
 71
0
 42
0.2
  3
txt
  4

  0
ENDTAB
  0
TABLE
  2
VIEW
  5
6
100
AcDbSymbolTable
 70
0
  0
ENDTAB
  0
TABLE
  2
UCS
  5
7
100
AcDbSymbolTable
 70
0
  0
ENDTAB
  0
TABLE
  2
APPID
  5
9
100
AcDbSymbolTable
 70
1
  0
APPID
  5
20B
100
AcDbSymbolTableRecord
100
AcDbRegAppTableRecord
  2
ACAD
 70
0
  0
ENDTAB
  0
TABLE
  2
BLOCK_RECORD
  5
1
100
AcDbSymbolTable
 70
0
  0
BLOCK_RECORD
  5
20C
100
AcDbSymbolTableRecord
100
AcDbBlockTableRecord
  2
*Model_Space
  0
BLOCK_RECORD
  5
20D
100
AcDbSymbolTableRecord
100
AcDbBlockTableRecord
  2
*Paper_Space
  0
BLOCK_RECORD
  5
20E
100
AcDbSymbolTableRecord
100
AcDbBlockTableRecord
  2
_FILLED
  0
BLOCK_RECORD
  5
20F
100
AcDbSymbolTableRecord
100
AcDbBlockTableRecord
  2
*D0
  0
BLOCK_RECORD
  5
210
100
AcDbSymbolTableRecord
100
AcDbBlockTableRecord
  2
*D1
  0
BLOCK_RECORD
  5
211
100
AcDbSymbolTableRecord
100
AcDbBlockTableRecord
  2
*D2
  0
BLOCK_RECORD
  5
212
100
AcDbSymbolTableRecord
100
AcDbBlockTableRecord
  2
*D3
  0
BLOCK_RECORD
  5
213
100
AcDbSymbolTableRecord
100
AcDbBlockTableRecord
  2
*D4
  0
BLOCK_RECORD
  5
214
100
AcDbSymbolTableRecord
100
AcDbBlockTableRecord
  2
*D5
  0
BLOCK_RECORD
  5
215
100
AcDbSymbolTableRecord
100
AcDbBlockTableRecord
  2
*D6
  0
BLOCK_RECORD
  5
216
100
AcDbSymbolTableRecord
100
AcDbBlockTableRecord
  2
*D7
  0
BLOCK_RECORD
  5
217
100
AcDbSymbolTableRecord
100
AcDbBlockTableRecord
  2
*D8
  0
BLOCK_RECORD
  5
218
100
AcDbSymbolTableRecord
100
AcDbBlockTableRecord
  2
SYMBOL_27_BL0
  0
BLOCK_RECORD
  5
219
100
AcDbSymbolTableRecord
100
AcDbBlockTableRecord
  2
*T1
  0
ENDTAB
  0
TABLE
  2
DIMSTYLE
  5
A
100
AcDbSymbolTable
 70
1
100
AcDbDimStyleTable
 71
0
  0
DIMSTYLE
105
21A
100
AcDbSymbolTableRecord
100
AcDbDimStyleTableRecord
  2
STANDARD
 70
0
  3

  4

 40
1.0
 41
3.5
 42
0.0
 43
0.38
 44
1.5
 45
0.0
 46
0.0
 47
0.005
 48
0.005
140
2.5
141
0.09
142
0.0
143
25.4
144
1.0
145
0.0
146
1.0
147
0.625
 71
1.0
 72
0.0
 73
0
 74
0
 75
0
 76
0
 77
1
 78
8
170
0
171
2
172
0
173
0
174
0
175
0
176
0
177
0
178
5
270
2
271
3
272
3
273
2
274
2
275
0
280
0
281
0
282
0
283
1
284
8
285
0
286
0
287
3
288
0
340
11
278
46
341
20E
342
20E
343
20E
344
20E
  0
DIMSTYLE
105
21B
100
AcDbSymbolTableRecord
100
AcDbDimStyleTableRecord
  2
DIMSTYLE_1
 70
0
  3

  4

 40
1.0
 41
3.5
 42
0.0
 43
0.38
 44
1.5
 45
0.0
 46
0.0
 47
0.5
 48
0.5
140
2.5
141
0.09
142
0.0
143
25.4
144
1.0
145
0.0
146
1.0
147
0.625
 71
0.0
 72
0.0
 73
0
 74
0
 75
0
 76
0
 77
1
 78
8
170
0
171
2
172
0
173
0
174
0
175
0
176
0
177
0
178
5
270
2
271
3
272
3
273
2
274
2
275
0
280
0
281
0
282
0
283
1
284
8
285
0
286
0
287
3
288
0
340
11
278
46
341
20E
342
20E
343
20E
344
20E
  0
DIMSTYLE
105
21C
100
AcDbSymbolTableRecord
100
AcDbDimStyleTableRecord
  2
DIMSTYLE_2
 70
0
  3

  4

 40
1.0
 41
3.5
 42
0.0
 43
0.38
 44
1.5
 45
0.0
 46
0.0
 47
0.3
 48
0.3
140
2.5
141
0.09
142
0.0
143
25.4
144
1.0
145
0.0
146
1.0
147
0.625
 71
0.0
 72
0.0
 73
0
 74
0
 75
0
 76
0
 77
1
 78
8
170
0
171
2
172
0
173
0
174
0
175
0
176
0
177
0
178
5
270
2
271
3
272
3
273
2
274
2
275
0
280
0
281
0
282
0
283
1
284
8
285
0
286
0
287
3
288
0
340
11
278
46
341
20E
342
20E
343
20E
344
20E
  0
DIMSTYLE
105
21D
100
AcDbSymbolTableRecord
100
AcDbDimStyleTableRecord
  2
DIMSTYLE_3
 70
0
  3
<>
  4

 40
1.0
 41
3.5
 42
0.0
 43
0.38
 44
1.5
 45
0.0
 46
0.0
 47
0.3
 48
0.3
140
2.5
141
0.09
142
0.0
143
25.4
144
1.0
145
0.0
146
1.0
147
0.625
 71
0.0
 72
0.0
 73
0
 74
0
 75
0
 76
0
 77
1
 78
8
170
0
171
2
172
1
173
0
174
0
175
0
176
0
177
0
178
5
270
2
271
3
272
3
273
2
274
2
275
0
280
0
281
0
282
0
283
1
284
8
285
0
286
0
287
3
288
1
340
11
278
46
289
2
341
20E
342
20E
343
20E
344
20E
  0
DIMSTYLE
105
21E
100
AcDbSymbolTableRecord
100
AcDbDimStyleTableRecord
  2
DIMSTYLE_4
 70
0
  3
<>
  4

 40
1.0
 41
3.5
 42
0.0
 43
0.38
 44
1.5
 45
0.0
 46
0.0
 47
0.1
 48
0.1
140
2.5
141
0.09
142
0.0
143
25.4
144
1.0
145
0.0
146
1.0
147
0.625
 71
0.0
 72
0.0
 73
0
 74
0
 75
0
 76
0
 77
1
 78
8
170
0
171
2
172
1
173
0
174
0
175
0
176
0
177
0
178
5
270
2
271
3
272
3
273
2
274
2
275
0
280
0
281
0
282
0
283
1
284
8
285
0
286
0
287
3
288
1
340
11
278
46
289
2
341
20E
342
20E
343
20E
344
20E
  0
DIMSTYLE
105
21F
100
AcDbSymbolTableRecord
100
AcDbDimStyleTableRecord
  2
DIMSTYLE_5
 70
0
  3

  4

 40
1.0
 41
3.5
 42
0.0
 43
0.38
 44
1.5
 45
0.0
 46
0.0
 47
0.2
 48
0.2
140
2.5
141
0.09
142
0.0
143
25.4
144
1.0
145
0.0
146
1.0
147
0.625
 71
0.0
 72
0.0
 73
0
 74
0
 75
0
 76
0
 77
1
 78
8
170
0
171
2
172
0
173
0
174
0
175
0
176
0
177
0
178
5
270
2
271
3
272
3
273
2
274
2
275
0
280
0
281
0
282
0
283
1
284
8
285
0
286
0
287
3
288
0
340
11
278
46
341
20E
342
20E
343
20E
344
20E
  0
ENDTAB
  0
ENDSEC
  0
SECTION
  2
BLOCKS
  0
BLOCK
  5
20
100
AcDbEntity
  8
0
100
AcDbBlockBegin
  2
*Model_Space
 70
0
 10
0.0
 20
0.0
 30
0.0
  3
*Model_Space
  1

  0
ENDBLK
  5
21
100
AcDbEntity
  8
0
100
AcDbBlockEnd
  0
BLOCK
  5
1C
100
AcDbEntity
  8
0
100
AcDbBlockBegin
  2
*Paper_Space
 70
0
 10
0.0
 20
0.0
 30
0.0
  3
*Paper_Space
  1

  0
ENDBLK
  5
1D
100
AcDbEntity
  8
0
100
AcDbBlockEnd
  0
BLOCK
  5
220
100
AcDbEntity
  8
0
100
AcDbBlockBegin
 62
5
  6
CONTINUOUS
  2
SYMBOL_27_BL0
 70
64
 10
306.4999994719
 20
15.0062199685
  3
SYMBOL_27_BL0
  1

  0
LINE
  5
221
100
AcDbEntity
  8
0
100
AcDbLine
 62
5
  6
CONTINUOUS
 10
286.440646698
 20
20.2542610645
 11
286.440646698
 21
10.2542610645
  0
LINE
  5
222
100
AcDbEntity
  8
0
100
AcDbLine
 62
5
  6
CONTINUOUS
 10
286.840646698
 20
10.6542610645
 11
286.840646698
 21
19.8542610645
  0
LINE
  5
223
100
AcDbEntity
  8
0
100
AcDbLine
 62
5
  6
CONTINUOUS
 10
290.648646698
 20
19.5622610645
 11
290.648646698
 21
11.0675590952
  0
LINE
  5
224
100
AcDbEntity
  8
0
100
AcDbLine
 62
5
  6
CONTINUOUS
 10
291.512646698
 20
11.0675590952
 11
291.512646698
 21
19.5622610645
  0
LINE
  5
225
100
AcDbEntity
  8
0
100
AcDbLine
 62
5
  6
CONTINUOUS
 10
295.240646698
 20
19.8542610645
 11
295.240646698
 21
10.6542610645
  0
LINE
  5
226
100
AcDbEntity
  8
0
100
AcDbLine
 62
5
  6
CONTINUOUS
 10
295.640646698
 20
10.2542610645
 11
295.640646698
 21
20.2542610645
  0
LINE
  5
227
100
AcDbEntity
  8
0
100
AcDbLine
 62
5
  6
CONTINUOUS
 10
302.9965359
 20
14.5421961959
 11
302.9647356199
 21
14.7373161602
  0
LINE
  5
228
100
AcDbEntity
  8
0
100
AcDbLine
 62
5
  6
CONTINUOUS
 10
302.0499077253
 20
14.7373161602
 11
302.0499077253
 21
12.4903864011
  0
LINE
  5
229
100
AcDbEntity
  8
0
100
AcDbLine
 62
5
  6
CONTINUOUS
 10
302.0499077253
 20
12.0885990558
 11
302.0499077253
 21
9.8721429157
  0
LINE
  5
22A
100
AcDbEntity
  8
0
100
AcDbLine
 62
5
  6
CONTINUOUS
 10
303.028646698
 20
12.8492977944
 11
303.028646698
 21
13.2484337354
  0
LINE
  5
22B
100
AcDbEntity
  8
0
100
AcDbLine
 62
5
  6
CONTINUOUS
 10
303.0470105273
 20
9.8721429157
 11
303.0470105273
 21
11.3525988614
  0
LINE
  5
22C
100
AcDbEntity
  8
0
100
AcDbLine
 62
5
  6
CONTINUOUS
 10
304.652646698
 20
13.1798332195
 11
304.652646698
 21
12.9622610645
  0
LINE
  5
22D
100
AcDbEntity
  8
0
100
AcDbLine
 62
5
  6
CONTINUOUS
 10
309.260646698
 20
19.5622610645
 11
309.260646698
 21
13.2199311408
  0
LINE
  5
22E
100
AcDbEntity
  8
0
100
AcDbLine
 62
5
  6
CONTINUOUS
 10
309.260646698
 20
12.7015387273
 11
309.260646698
 21
11.0902610645
  0
LINE
  5
22F
100
AcDbEntity
  8
0
100
AcDbLine
 62
5
  6
CONTINUOUS
 10
310.168646698
 20
11.0902610645
 11
310.168646698
 21
19.5622610645
  0
LINE
  5
230
100
AcDbEntity
  8
0
100
AcDbLine
 62
5
  6
CONTINUOUS
 10
313.7366466753
 20
19.5986610645
 11
313.7366466753
 21
11.1062610645
  0
LINE
  5
231
100
AcDbEntity
  8
0
100
AcDbLine
 62
5
  6
CONTINUOUS
 10
314.6867871328
 20
11.1062610645
 11
314.6867871328
 21
11.7070477572
  0
LINE
  5
232
100
AcDbEntity
  8
0
100
AcDbLine
 62
5
  6
CONTINUOUS
 10
314.7212124261
 20
14.0459392102
 11
314.7212124261
 21
19.5986610645
  0
LINE
  5
233
100
AcDbEntity
  8
0
100
AcDbLine
 62
5
  6
CONTINUOUS
 10
302.0499077253
 20
9.8721429157
 11
303.0470105273
 21
9.8721429157
  0
LINE
  5
234
100
AcDbEntity
  8
0
100
AcDbLine
 62
5
  6
CONTINUOUS
 10
286.440646698
 20
10.2542610645
 11
295.640646698
 21
10.2542610645
  0
LINE
  5
235
100
AcDbEntity
  8
0
100
AcDbLine
 62
5
  6
CONTINUOUS
 10
295.240646698
 20
10.6542610645
 11
286.840646698
 21
10.6542610645
  0
LINE
  5
236
100
AcDbEntity
  8
0
100
AcDbLine
 62
5
  6
CONTINUOUS
 10
324.0963142131
 20
10.8343018114
 11
323.1556764588
 21
10.8343018114
  0
LINE
  5
237
100
AcDbEntity
  8
0
100
AcDbLine
 62
5
  6
CONTINUOUS
 10
290.648646698
 20
11.0675590952
 11
291.512646698
 21
11.0675590952
  0
LINE
  5
238
100
AcDbEntity
  8
0
100
AcDbLine
 62
5
  6
CONTINUOUS
 10
309.260646698
 20
11.0902610645
 11
310.168646698
 21
11.0902610645
  0
LINE
  5
239
100
AcDbEntity
  8
0
100
AcDbLine
 62
5
  6
CONTINUOUS
 10
321.0206466937
 20
11.0942610645
 11
321.9328178269
 21
11.0942610645
  0
LINE
  5
23A
100
AcDbEntity
  8
0
100
AcDbLine
 62
5
  6
CONTINUOUS
 10
313.7366466753
 20
11.1062610645
 11
314.6867871328
 21
11.1062610645
  0
LINE
  5
23B
100
AcDbEntity
  8
0
100
AcDbLine
 62
5
  6
CONTINUOUS
 10
320.9523182833
 20
12.1520665426
 11
319.9133957865
 21
12.1520665426
  0
LINE
  5
23C
100
AcDbEntity
  8
0
100
AcDbLine
 62
5
  6
CONTINUOUS
 10
290.3753378219
 20
12.1787009595
 11
289.4278292437
 21
12.1787009595
  0
LINE
  5
23D
100
AcDbEntity
  8
0
100
AcDbLine
 62
5
  6
CONTINUOUS
 10
309.2452425009
 20
12.1814029288
 11
308.2063200042
 21
12.1814029288
  0
LINE
  5
23E
100
AcDbEntity
  8
0
100
AcDbLine
 62
5
  6
CONTINUOUS
 10
311.2742255119
 20
12.3026086242
 11
310.304646698
 21
12.3026086242
  0
LINE
  5
23F
100
AcDbEntity
  8
0
100
AcDbLine
 62
5
  6
CONTINUOUS
 10
299.7062255119
 20
12.3066086242
 11
298.736646698
 21
12.3066086242
  0
LINE
  5
240
100
AcDbEntity
  8
0
100
AcDbLine
 62
5
  6
CONTINUOUS
 10
292.5843072746
 20
12.3079066549
 11
291.636798769
 21
12.3079066549
  0
LINE
  5
241
100
AcDbEntity
  8
0
100
AcDbLine
 62
5
  6
CONTINUOUS
 10
318.3586448516
 20
12.6722023411
 11
320.9959094548
 21
12.6722023411
  0
LINE
  5
242
100
AcDbEntity
  8
0
100
AcDbLine
 62
5
  6
CONTINUOUS
 10
288.0098795385
 20
12.698836758
 11
290.4150934429
 21
12.698836758
  0
LINE
  5
243
100
AcDbEntity
  8
0
100
AcDbLine
 62
5
  6
CONTINUOUS
 10
306.6515690693
 20
12.7015387273
 11
309.260646698
 21
12.7015387273
  0
LINE
  5
244
100
AcDbEntity
  8
0
100
AcDbLine
 62
5
  6
CONTINUOUS
 10
319.9569869581
 20
13.3248567791
 11
318.3659100735
 21
13.3248567791
  0
LINE
  5
245
100
AcDbEntity
  8
0
100
AcDbLine
 62
5
  6
CONTINUOUS
 10
289.4675848646
 20
13.351491196
 11
288.0165054996
 21
13.351491196
  0
LINE
  5
246
100
AcDbEntity
  8
0
100
AcDbLine
 62
5
  6
CONTINUOUS
 10
308.2499111757
 20
13.3541931653
 11
306.6588342911
 21
13.3541931653
  0
LINE
  5
247
100
AcDbEntity
  8
0
100
AcDbLine
 62
5
  6
CONTINUOUS
 10
312.5523065775
 20
13.6311084003
 11
313.521885317
 21
13.6311084003
  0
LINE
  5
248
100
AcDbEntity
  8
0
100
AcDbLine
 62
5
  6
CONTINUOUS
 10
300.9843065775
 20
13.6351084003
 11
301.953885317
 21
13.6351084003
  0
LINE
  5
249
100
AcDbEntity
  8
0
100
AcDbLine
 62
5
  6
CONTINUOUS
 10
293.8332956633
 20
13.636406431
 11
294.7808040962
 21
13.636406431
  0
LINE
  5
24A
100
AcDbEntity
  8
0
100
AcDbLine
 62
5
  6
CONTINUOUS
 10
321.8722189715
 20
14.5228762394
 11
321.0206466937
 21
14.5228762394
  0
LINE
  5
24B
100
AcDbEntity
  8
0
100
AcDbLine
 62
5
  6
CONTINUOUS
 10
326.5593522458
 20
14.5897397828
 11
325.7901119005
 21
14.5897397828
  0
LINE
  5
24C
100
AcDbEntity
  8
0
100
AcDbLine
 62
5
  6
CONTINUOUS
 10
302.9647356199
 20
14.7373161602
 11
302.0499077253
 21
14.7373161602
  0
LINE
  5
24D
100
AcDbEntity
  8
0
100
AcDbLine
 62
5
  6
CONTINUOUS
 10
323.0044592177
 20
13.8358179653
 11
323.1522381034
 21
13.8132740137
  0
LINE
  5
24E
100
AcDbEntity
  8
0
100
AcDbLine
 62
5
  6
CONTINUOUS
 10
301.0927909235
 20
13.264056035
 11
300.2588175792
 21
13.4528950892
  0
LINE
  5
24F
100
AcDbEntity
  8
0
100
AcDbLine
 62
5
  6
CONTINUOUS
 10
312.6607909235
 20
13.260056035
 11
311.8268175792
 21
13.4488950892
  0
LINE
  5
250
100
AcDbEntity
  8
0
100
AcDbLine
 62
5
  6
CONTINUOUS
 10
293.9393106041
 20
13.2653540657
 11
293.1243208108
 21
13.4541931198
  0
LINE
  5
251
100
AcDbEntity
  8
0
100
AcDbLine
 62
5
  6
CONTINUOUS
 10
322.0093449831
 20
14.1552961801
 11
321.8722189715
 21
14.5228762394
  0
LINE
  5
252
100
AcDbEntity
  8
0
100
AcDbLine
 62
5
  6
CONTINUOUS
 10
321.0206466937
 20
14.5228762394
 11
321.0206466937
 21
11.0942610645
  0
LINE
  5
253
100
AcDbEntity
  8
0
100
AcDbLine
 62
5
  6
CONTINUOUS
 10
321.9328178269
 20
11.0942610645
 11
321.9328178269
 21
12.4502923219
  0
LINE
  5
254
100
AcDbEntity
  8
0
100
AcDbLine
 62
5
  6
CONTINUOUS
 10
323.1522381034
 20
13.8132740137
 11
323.1522381034
 21
14.5674427603
  0
LINE
  5
255
100
AcDbEntity
  8
0
100
AcDbLine
 62
5
  6
CONTINUOUS
 10
325.7901119005
 20
14.5897397828
 11
325.7901119005
 21
14.1481104636
  0
LINE
  5
256
100
AcDbEntity
  8
0
100
AcDbLine
 62
5
  6
CONTINUOUS
 10
326.5593522458
 20
11.103866091
 11
326.5593522458
 21
14.5897397828
  0
LINE
  5
257
100
AcDbEntity
  8
0
100
AcDbLine
 62
5
  6
CONTINUOUS
 10
321.9328178269
 20
12.4502923219
 11
321.9793443315
 21
12.8715747715
  0
LINE
  5
258
100
AcDbEntity
  8
0
100
AcDbLine
 62
5
  6
CONTINUOUS
 10
310.168646698
 20
19.5622610645
 11
309.260646698
 21
19.5622610645
  0
LINE
  5
259
100
AcDbEntity
  8
0
100
AcDbLine
 62
5
  6
CONTINUOUS
 10
291.512646698
 20
19.5622610645
 11
290.648646698
 21
19.5622610645
  0
LINE
  5
25A
100
AcDbEntity
  8
0
100
AcDbLine
 62
5
  6
CONTINUOUS
 10
314.7212124261
 20
19.5986610645
 11
313.7366466753
 21
19.5986610645
  0
LINE
  5
25B
100
AcDbEntity
  8
0
100
AcDbLine
 62
5
  6
CONTINUOUS
 10
286.840646698
 20
19.8542610645
 11
295.240646698
 21
19.8542610645
  0
LINE
  5
25C
100
AcDbEntity
  8
0
100
AcDbLine
 62
5
  6
CONTINUOUS
 10
295.640646698
 20
20.2542610645
 11
286.440646698
 21
20.2542610645
  0
ARC
  5
25D
100
AcDbEntity
  8
0
100
AcDbCircle
 62
5
  6
CONTINUOUS
 10
324.7941740634
 20
18.4755213547
 40
8.013993536
100
AcDbArc
 50
268.9290579739
 51
271.0709420261
  0
ARC
  5
25E
100
AcDbEntity
  8
0
100
AcDbCircle
 62
5
  6
CONTINUOUS
 10
328.9141373095
 20
11.5111069654
 40
3.3193039142
100
AcDbArc
 50
179.9741546701
 51
183.2978387268
  0
ARC
  5
25F
100
AcDbEntity
  8
0
100
AcDbCircle
 62
5
  6
CONTINUOUS
 10
324.7353522458
 20
12.8297397828
 40
3.084
100
AcDbArc
 50
262.5863261985
 51
287.7362518
  0
ARC
  5
260
100
AcDbEntity
  8
0
100
AcDbCircle
 62
5
  6
CONTINUOUS
 10
312.0603296207
 20
10.6285034257
 40
2.6991893064
100
AcDbArc
 50
69.711904135
 51
77.1464457876
  0
ARC
  5
261
100
AcDbEntity
  8
0
100
AcDbCircle
 62
5
  6
CONTINUOUS
 10
300.4923296207
 20
10.6325034257
 40
2.6991893064
100
AcDbArc
 50
69.711904135
 51
77.1464457876
  0
ARC
  5
262
100
AcDbEntity
  8
0
100
AcDbCircle
 62
5
  6
CONTINUOUS
 10
293.3496672406
 20
10.7406338756
 40
2.5926610528
100
AcDbArc
 50
69.2757911335
 51
76.854313548
  0
ARC
  5
263
100
AcDbEntity
  8
0
100
AcDbCircle
 62
5
  6
CONTINUOUS
 10
303.7137497483
 20
12.9424607136
 40
1.9675366406
100
AcDbArc
 50
309.7462536266
 51
348.1342686422
  0
ARC
  5
264
100
AcDbEntity
  8
0
100
AcDbCircle
 62
5
  6
CONTINUOUS
 10
303.7137497483
 20
12.9424607136
 40
1.9675366406
100
AcDbArc
 50
11.311960254
 51
46.3381254223
  0
ARC
  5
265
100
AcDbEntity
  8
0
100
AcDbCircle
 62
5
  6
CONTINUOUS
 10
302.888646698
 20
12.9622610645
 40
1.764
100
AcDbArc
 50
343.6739161688
 51
360.0
  0
ARC
  5
266
100
AcDbEntity
  8
0
100
AcDbCircle
 62
5
  6
CONTINUOUS
 10
304.0368734378
 20
12.8063513336
 40
1.6875637879
100
AcDbArc
 50
262.225530142
 51
297.7740136114
  0
ARC
  5
267
100
AcDbEntity
  8
0
100
AcDbCircle
 62
5
  6
CONTINUOUS
 10
324.5433522458
 20
11.3541788725
 40
1.596
100
AcDbArc
 50
236.3397201072
 51
262.5863261985
  0
ARC
  5
268
100
AcDbEntity
  8
0
100
AcDbCircle
 62
5
  6
CONTINUOUS
 10
323.2843606909
 20
12.7274485454
 40
1.3129509007
100
AcDbArc
 50
148.1557474017
 51
173.6977844408
  0
ARC
  5
269
100
AcDbEntity
  8
0
100
AcDbCircle
 62
5
  6
CONTINUOUS
 10
325.2873522458
 20
11.103866091
 40
1.272
100
AcDbArc
 50
287.7362518
 51
360.0
  0
ARC
  5
26A
100
AcDbEntity
  8
0
100
AcDbCircle
 62
5
  6
CONTINUOUS
 10
304.164646698
 20
12.8492977944
 40
1.136
100
AcDbArc
 50
180.0
 51
207.1129411294
  0
ARC
  5
26B
100
AcDbEntity
  8
0
100
AcDbCircle
 62
5
  6
CONTINUOUS
 10
322.92021504
 20
12.7879570786
 40
1.0512418938
100
AcDbArc
 50
85.40351539
 51
100.4696754519
  0
ARC
  5
26C
100
AcDbEntity
  8
0
100
AcDbCircle
 62
5
  6
CONTINUOUS
 10
303.640646698
 20
13.1798332195
 40
1.012
100
AcDbArc
 50
0.0
 51
31.788330617
  0
ARC
  5
26D
100
AcDbEntity
  8
0
100
AcDbCircle
 62
5
  6
CONTINUOUS
 10
324.8722613687
 20
12.9102610645
 40
1.004
100
AcDbArc
 50
136.0170368696
 51
224.1103501111
  0
ARC
  5
26E
100
AcDbEntity
  8
0
100
AcDbCircle
 62
5
  6
CONTINUOUS
 10
324.6374972143
 20
12.9102610645
 40
1.004
100
AcDbArc
 50
325.2838374326
 51
10.5325754549
  0
ARC
  5
26F
100
AcDbEntity
  8
0
100
AcDbCircle
 62
5
  6
CONTINUOUS
 10
324.655733837
 20
11.2657301325
 40
0.946163226
100
AcDbArc
 50
324.7130554607
 51
3.2978387268
  0
ARC
  5
270
100
AcDbEntity
  8
0
100
AcDbCircle
 62
5
  6
CONTINUOUS
 10
324.768646698
 20
13.0102610645
 40
0.86
100
AcDbArc
 50
5.5735187429
 51
136.0170368696
  0
ARC
  5
271
100
AcDbEntity
  8
0
100
AcDbCircle
 62
5
  6
CONTINUOUS
 10
303.860646698
 20
13.2484337354
 40
0.832
100
AcDbArc
 50
105.4660099534
 51
180.0
  0
ARC
  5
272
100
AcDbEntity
  8
0
100
AcDbCircle
 62
5
  6
CONTINUOUS
 10
324.760646698
 20
12.7542610645
 40
0.816
100
AcDbArc
 50
221.6998787553
 51
329.3664120252
  0
ARC
  5
273
100
AcDbEntity
  8
0
100
AcDbCircle
 62
5
  6
CONTINUOUS
 10
322.8764597343
 20
13.0247389062
 40
0.8104511949
100
AcDbArc
 50
100.4696754519
 51
150.7957950668
  0
ARC
  5
274
100
AcDbEntity
  8
0
100
AcDbCircle
 62
5
  6
CONTINUOUS
 10
303.840646698
 20
12.6834062636
 40
0.772
100
AcDbArc
 50
207.1129411294
 51
343.6739161688
  0
ARC
  5
275
100
AcDbEntity
  8
0
100
AcDbCircle
 62
5
  6
CONTINUOUS
 10
303.844646698
 20
13.3062610645
 40
0.772
100
AcDbArc
 50
31.788330617
 51
105.4660099534
  0
ARC
  5
276
100
AcDbEntity
  8
0
100
AcDbCircle
 62
5
  6
CONTINUOUS
 10
324.9326142898
 20
11.0697825476
 40
0.6069608659
100
AcDbArc
 50
271.0709420261
 51
324.7130554606
  0
ARC
  5
277
100
AcDbEntity
  8
0
100
AcDbCircle
 62
5
  6
CONTINUOUS
 10
324.655733837
 20
11.0697825476
 40
0.6069608659
100
AcDbArc
 50
202.8280540764
 51
268.9290579739
  0
ARC
  5
278
100
AcDbEntity
  8
0
100
AcDbCircle
 62
5
  6
CONTINUOUS
 10
304.5779099997
 20
11.7790550858
 40
0.5265047274
100
AcDbArc
 50
297.7740136114
 51
318.4231605891
  0
ARC
  5
279
100
AcDbEntity
  8
0
100
AcDbCircle
 62
5
  6
CONTINUOUS
 10
322.9745433318
 20
14.2713265744
 40
0.345340741
100
AcDbArc
 50
59.0326782368
 51
85.0304008414
  0
SPLINE
  5
27A
100
AcDbEntity
  8
0
100
AcDbSpline
 62
5
  6
CONTINUOUS
 70
0
 71
3
 72
8
 73
4
 74
0
 42
0.0000001
 43
0.0000001
 44
0.0000000001
 40
0.0
 40
0.0
 40
0.0
 40
0.0
 40
1.0
 40
1.0
 40
1.0
 40
1.0
 10
291.636798769
 20
12.3079066549
 30
0.0
 10
291.6898062393
 20
11.4796650122
 30
0.0
 10
292.2530106029
 20
11.0688571259
 30
0.0
 10
293.3297248039
 20
11.0688571259
 30
0.0
  0
SPLINE
  5
27B
100
AcDbEntity
  8
0
100
AcDbSpline
 62
5
  6
CONTINUOUS
 70
0
 71
3
 72
8
 73
4
 74
0
 42
0.0000001
 43
0.0000001
 44
0.0000000001
 40
0.0
 40
0.0
 40
0.0
 40
0.0
 40
1.0
 40
1.0
 40
1.0
 40
1.0
 10
293.3297248039
 20
11.0688571259
 30
0.0
 10
293.8465475855
 20
11.0688571259
 30
0.0
 10
294.2341647444
 20
11.1814979959
 30
0.0
 10
294.4958890696
 20
11.4067796582
 30
0.0
  0
SPLINE
  5
27C
100
AcDbEntity
  8
0
100
AcDbSpline
 62
5
  6
CONTINUOUS
 70
0
 71
3
 72
8
 73
4
 74
0
 42
0.0000001
 43
0.0000001
 44
0.0000000001
 40
0.0
 40
0.0
 40
0.0
 40
0.0
 40
1.0
 40
1.0
 40
1.0
 40
1.0
 10
294.4958890696
 20
11.4067796582
 30
0.0
 10
294.7576135597
 20
11.6320614622
 30
0.0
 10
294.8901321993
 20
11.930228474
 30
0.0
 10
294.8901321993
 20
12.3012807666
 30
0.0
  0
SPLINE
  5
27D
100
AcDbEntity
  8
0
100
AcDbSpline
 62
5
  6
CONTINUOUS
 70
0
 71
3
 72
8
 73
4
 74
0
 42
0.0000001
 43
0.0000001
 44
0.0000000001
 40
0.0
 40
0.0
 40
0.0
 40
0.0
 40
1.0
 40
1.0
 40
1.0
 40
1.0
 10
294.8901321993
 20
12.3012807666
 30
0.0
 10
294.8901321993
 20
12.4702420829
 30
0.0
 10
294.8570023212
 20
12.6193255161
 30
0.0
 10
294.790194059
 20
12.744925157
 30
0.0
  0
SPLINE
  5
27E
100
AcDbEntity
  8
0
100
AcDbSpline
 62
5
  6
CONTINUOUS
 70
0
 71
3
 72
8
 73
4
 74
0
 42
0.0000001
 43
0.0000001
 44
0.0000000001
 40
0.0
 40
0.0
 40
0.0
 40
0.0
 40
1.0
 40
1.0
 40
1.0
 40
1.0
 10
294.790194059
 20
12.744925157
 30
0.0
 10
294.6913540945
 20
12.9307444499
 30
0.0
 10
294.519079834
 20
13.0698889778
 30
0.0
 10
294.2671323633
 20
13.1655357464
 30
0.0
  0
SPLINE
  5
27F
100
AcDbEntity
  8
0
100
AcDbSpline
 62
5
  6
CONTINUOUS
 70
0
 71
3
 72
8
 73
4
 74
0
 42
0.0000001
 43
0.0000001
 44
0.0000000001
 40
0.0
 40
0.0
 40
0.0
 40
0.0
 40
1.0
 40
1.0
 40
1.0
 40
1.0
 10
293.1243208108
 20
13.4541931198
 30
0.0
 10
293.0083669648
 20
13.4740709303
 30
0.0
 10
292.9122909293
 20
13.5072006629
 30
0.0
 10
292.8345562602
 20
13.5507320449
 30
0.0
  0
SPLINE
  5
280
100
AcDbEntity
  8
0
100
AcDbSpline
 62
5
  6
CONTINUOUS
 70
0
 71
3
 72
8
 73
4
 74
0
 42
0.0000001
 43
0.0000001
 44
0.0000000001
 40
0.0
 40
0.0
 40
0.0
 40
0.0
 40
1.0
 40
1.0
 40
1.0
 40
1.0
 10
292.8345562602
 20
13.5507320449
 30
0.0
 10
292.7466425571
 20
13.5999636816
 30
0.0
 10
292.7035740647
 20
13.679474778
 30
0.0
 10
292.7035740647
 20
13.792115898
 30
0.0
  0
SPLINE
  5
281
100
AcDbEntity
  8
0
100
AcDbSpline
 62
5
  6
CONTINUOUS
 70
0
 71
3
 72
8
 73
4
 74
0
 42
0.0000001
 43
0.0000001
 44
0.0000000001
 40
0.0
 40
0.0
 40
0.0
 40
0.0
 40
1.0
 40
1.0
 40
1.0
 40
1.0
 10
292.7035740647
 20
13.792115898
 30
0.0
 10
292.7035740647
 20
13.8915046595
 30
0.0
 10
292.749955574
 20
13.9677028845
 30
0.0
 10
292.8467566536
 20
14.0261173342
 30
0.0
  0
SPLINE
  5
282
100
AcDbEntity
  8
0
100
AcDbSpline
 62
5
  6
CONTINUOUS
 70
0
 71
3
 72
8
 73
4
 74
0
 42
0.0000001
 43
0.0000001
 44
0.0000000001
 40
0.0
 40
0.0
 40
0.0
 40
0.0
 40
1.0
 40
1.0
 40
1.0
 40
1.0
 10
292.8467566536
 20
14.0261173342
 30
0.0
 10
292.942107645
 20
14.0836567305
 30
0.0
 10
293.0646873793
 20
14.1134735916
 30
0.0
 10
293.210457941
 20
14.1134735916
 30
0.0
  0
SPLINE
  5
283
100
AcDbEntity
  8
0
100
AcDbSpline
 62
5
  6
CONTINUOUS
 70
0
 71
3
 72
8
 73
4
 74
0
 42
0.0000001
 43
0.0000001
 44
0.0000000001
 40
0.0
 40
0.0
 40
0.0
 40
0.0
 40
1.0
 40
1.0
 40
1.0
 40
1.0
 10
293.210457941
 20
14.1134735916
 30
0.0
 10
293.5682583842
 20
14.1134735916
 30
0.0
 10
293.7736623773
 20
13.9544511078
 30
0.0
 10
293.8332956633
 20
13.636406431
 30
0.0
  0
SPLINE
  5
284
100
AcDbEntity
  8
0
100
AcDbSpline
 62
5
  6
CONTINUOUS
 70
0
 71
3
 72
8
 73
4
 74
0
 42
0.0000001
 43
0.0000001
 44
0.0000000001
 40
0.0
 40
0.0
 40
0.0
 40
0.0
 40
1.0
 40
1.0
 40
1.0
 40
1.0
 10
294.7808040962
 20
13.636406431
 30
0.0
 10
294.7277966985
 20
14.4381443022
 30
0.0
 10
294.2043478832
 20
14.8390132378
 30
0.0
 10
293.210457941
 20
14.8390132378
 30
0.0
  0
SPLINE
  5
285
100
AcDbEntity
  8
0
100
AcDbSpline
 62
5
  6
CONTINUOUS
 70
0
 71
3
 72
8
 73
4
 74
0
 42
0.0000001
 43
0.0000001
 44
0.0000000001
 40
0.0
 40
0.0
 40
0.0
 40
0.0
 40
1.0
 40
1.0
 40
1.0
 40
1.0
 10
293.210457941
 20
14.8390132378
 30
0.0
 10
292.7598944793
 20
14.8390132378
 30
0.0
 10
292.405407053
 20
14.7329984425
 30
0.0
 10
292.1463355053
 20
14.5217808584
 30
0.0
  0
SPLINE
  5
286
100
AcDbEntity
  8
0
100
AcDbSpline
 62
5
  6
CONTINUOUS
 70
0
 71
3
 72
8
 73
4
 74
0
 42
0.0000001
 43
0.0000001
 44
0.0000000001
 40
0.0
 40
0.0
 40
0.0
 40
0.0
 40
1.0
 40
1.0
 40
1.0
 40
1.0
 10
292.1463355053
 20
14.5217808584
 30
0.0
 10
291.8852712909
 20
14.3089386795
 30
0.0
 10
291.7560655591
 20
14.0240235899
 30
0.0
 10
291.7560655591
 20
13.6662230013
 30
0.0
  0
SPLINE
  5
287
100
AcDbEntity
  8
0
100
AcDbSpline
 62
5
  6
CONTINUOUS
 70
0
 71
3
 72
8
 73
4
 74
0
 42
0.0000001
 43
0.0000001
 44
0.0000000001
 40
0.0
 40
0.0
 40
0.0
 40
0.0
 40
1.0
 40
1.0
 40
1.0
 40
1.0
 10
291.7560655591
 20
13.6662230013
 30
0.0
 10
291.7560655591
 20
13.2786059879
 30
0.0
 10
291.8918972156
 20
13.0168815802
 30
0.0
 10
292.1631689035
 20
12.8769804308
 30
0.0
  0
SPLINE
  5
288
100
AcDbEntity
  8
0
100
AcDbSpline
 62
5
  6
CONTINUOUS
 70
0
 71
3
 72
8
 73
4
 74
0
 42
0.0000001
 43
0.0000001
 44
0.0000000001
 40
0.0
 40
0.0
 40
0.0
 40
0.0
 40
1.0
 40
1.0
 40
1.0
 40
1.0
 10
292.1631689035
 20
12.8769804308
 30
0.0
 10
292.4186589024
 20
12.7452182673
 30
0.0
 10
292.7565814624
 20
12.6458293603
 30
0.0
 10
293.1771805974
 20
12.5753841191
 30
0.0
  0
SPLINE
  5
289
100
AcDbEntity
  8
0
100
AcDbSpline
 62
5
  6
CONTINUOUS
 70
0
 71
3
 72
8
 73
4
 74
0
 42
0.0000001
 43
0.0000001
 44
0.0000000001
 40
0.0
 40
0.0
 40
0.0
 40
0.0
 40
1.0
 40
1.0
 40
1.0
 40
1.0
 10
293.1771805974
 20
12.5753841191
 30
0.0
 10
293.4291137109
 20
12.5331883858
 30
0.0
 10
293.6278918157
 20
12.4768679713
 30
0.0
 10
293.7660640969
 20
12.4086790276
 30
0.0
  0
SPLINE
  5
28A
100
AcDbEntity
  8
0
100
AcDbSpline
 62
5
  6
CONTINUOUS
 70
0
 71
3
 72
8
 73
4
 74
0
 42
0.0000001
 43
0.0000001
 44
0.0000000001
 40
0.0
 40
0.0
 40
0.0
 40
0.0
 40
1.0
 40
1.0
 40
1.0
 40
1.0
 10
293.7660640969
 20
12.4086790276
 30
0.0
 10
293.8829901895
 20
12.35097522
 30
0.0
 10
293.942623621
 20
12.2582122014
 30
0.0
 10
293.942623621
 20
12.1256934892
 30
0.0
  0
SPLINE
  5
28B
100
AcDbEntity
  8
0
100
AcDbSpline
 62
5
  6
CONTINUOUS
 70
0
 71
3
 72
8
 73
4
 74
0
 42
0.0000001
 43
0.0000001
 44
0.0000000001
 40
0.0
 40
0.0
 40
0.0
 40
0.0
 40
1.0
 40
1.0
 40
1.0
 40
1.0
 10
293.942623621
 20
12.1256934892
 30
0.0
 10
293.942623621
 20
12.0263045095
 30
0.0
 10
293.8829901895
 20
11.9467933403
 30
0.0
 10
293.7699969175
 20
11.8878402913
 30
0.0
  0
SPLINE
  5
28C
100
AcDbEntity
  8
0
100
AcDbSpline
 62
5
  6
CONTINUOUS
 70
0
 71
3
 72
8
 73
4
 74
0
 42
0.0000001
 43
0.0000001
 44
0.0000000001
 40
0.0
 40
0.0
 40
0.0
 40
0.0
 40
1.0
 40
1.0
 40
1.0
 40
1.0
 10
293.7699969175
 20
11.8878402913
 30
0.0
 10
293.6543955145
 20
11.8275264774
 30
0.0
 10
293.5119379697
 20
11.7977098344
 30
0.0
 10
293.3429765806
 20
11.7977098344
 30
0.0
  0
SPLINE
  5
28D
100
AcDbEntity
  8
0
100
AcDbSpline
 62
5
  6
CONTINUOUS
 70
0
 71
3
 72
8
 73
4
 74
0
 42
0.0000001
 43
0.0000001
 44
0.0000000001
 40
0.0
 40
0.0
 40
0.0
 40
0.0
 40
1.0
 40
1.0
 40
1.0
 40
1.0
 10
293.3429765806
 20
11.7977098344
 30
0.0
 10
293.1673894486
 20
11.7977098344
 30
0.0
 10
293.0050540933
 20
11.8275264774
 30
0.0
 10
292.8557035037
 20
11.8931750974
 30
0.0
  0
SPLINE
  5
28E
100
AcDbEntity
  8
0
100
AcDbSpline
 62
5
  6
CONTINUOUS
 70
0
 71
3
 72
8
 73
4
 74
0
 42
0.0000001
 43
0.0000001
 44
0.0000000001
 40
0.0
 40
0.0
 40
0.0
 40
0.0
 40
1.0
 40
1.0
 40
1.0
 40
1.0
 10
292.8557035037
 20
11.8931750974
 30
0.0
 10
292.7035740647
 20
11.9600451897
 30
0.0
 10
292.6141239903
 20
12.0958768462
 30
0.0
 10
292.5843072746
 20
12.3079066549
 30
0.0
  0
SPLINE
  5
28F
100
AcDbEntity
  8
0
100
AcDbSpline
 62
5
  6
CONTINUOUS
 70
0
 71
3
 72
8
 73
4
 74
0
 42
0.0000001
 43
0.0000001
 44
0.0000000001
 40
0.0
 40
0.0
 40
0.0
 40
0.0
 40
1.0
 40
1.0
 40
1.0
 40
1.0
 10
288.0165054996
 20
13.351491196
 30
0.0
 10
288.0893907804
 20
13.8020546578
 30
0.0
 10
288.337863266
 20
14.027336316
 30
0.0
 10
288.7619230289
 20
14.027336316
 30
0.0
  0
SPLINE
  5
290
100
AcDbEntity
  8
0
100
AcDbSpline
 62
5
  6
CONTINUOUS
 70
0
 71
3
 72
8
 73
4
 74
0
 42
0.0000001
 43
0.0000001
 44
0.0000000001
 40
0.0
 40
0.0
 40
0.0
 40
0.0
 40
1.0
 40
1.0
 40
1.0
 40
1.0
 10
288.7619230289
 20
14.027336316
 30
0.0
 10
289.1859827919
 20
14.027336316
 30
0.0
 10
289.4212035007
 20
13.8020546578
 30
0.0
 10
289.4675848646
 20
13.351491196
 30
0.0
  0
SPLINE
  5
291
100
AcDbEntity
  8
0
100
AcDbSpline
 62
5
  6
CONTINUOUS
 70
0
 71
3
 72
8
 73
4
 74
0
 42
0.0000001
 43
0.0000001
 44
0.0000000001
 40
0.0
 40
0.0
 40
0.0
 40
0.0
 40
1.0
 40
1.0
 40
1.0
 40
1.0
 10
287.0623710693
 20
12.8943018459
 30
0.0
 10
287.0623710693
 20
12.35097522
 30
0.0
 10
287.2147675557
 20
11.9103506635
 30
0.0
 10
287.5195604736
 20
11.5724280832
 30
0.0
  0
SPLINE
  5
292
100
AcDbEntity
  8
0
100
AcDbSpline
 62
5
  6
CONTINUOUS
 70
0
 71
3
 72
8
 73
4
 74
0
 42
0.0000001
 43
0.0000001
 44
0.0000000001
 40
0.0
 40
0.0
 40
0.0
 40
0.0
 40
1.0
 40
1.0
 40
1.0
 40
1.0
 10
287.5195604736
 20
11.5724280832
 30
0.0
 10
287.8243534286
 20
11.2345054618
 30
0.0
 10
288.2384742136
 20
11.0688571259
 30
0.0
 10
288.7685489173
 20
11.0688571259
 30
0.0
  0
SPLINE
  5
293
100
AcDbEntity
  8
0
100
AcDbSpline
 62
5
  6
CONTINUOUS
 70
0
 71
3
 72
8
 73
4
 74
0
 42
0.0000001
 43
0.0000001
 44
0.0000000001
 40
0.0
 40
0.0
 40
0.0
 40
0.0
 40
1.0
 40
1.0
 40
1.0
 40
1.0
 10
288.7685489173
 20
11.0688571259
 30
0.0
 10
289.1097845669
 20
11.0688571259
 30
0.0
 10
289.4112644501
 20
11.1450553623
 30
0.0
 10
289.6689682234
 20
11.2887747816
 30
0.0
  0
SPLINE
  5
294
100
AcDbEntity
  8
0
100
AcDbSpline
 62
5
  6
CONTINUOUS
 70
0
 71
3
 72
8
 73
4
 74
0
 42
0.0000001
 43
0.0000001
 44
0.0000000001
 40
0.0
 40
0.0
 40
0.0
 40
0.0
 40
1.0
 40
1.0
 40
1.0
 40
1.0
 10
289.6689682234
 20
11.2887747816
 30
0.0
 10
289.9280872316
 20
11.4332834666
 30
0.0
 10
290.1633079405
 20
11.7314504783
 30
0.0
 10
290.3753378219
 20
12.1787009595
 30
0.0
  0
SPLINE
  5
295
100
AcDbEntity
  8
0
100
AcDbSpline
 62
5
  6
CONTINUOUS
 70
0
 71
3
 72
8
 73
4
 74
0
 42
0.0000001
 43
0.0000001
 44
0.0000000001
 40
0.0
 40
0.0
 40
0.0
 40
0.0
 40
1.0
 40
1.0
 40
1.0
 40
1.0
 10
289.4278292437
 20
12.1787009595
 30
0.0
 10
289.3052496547
 20
12.04618232
 30
0.0
 10
289.2025475855
 20
11.9633581339
 30
0.0
 10
289.1197234621
 20
11.930228499
 30
0.0
  0
SPLINE
  5
296
100
AcDbEntity
  8
0
100
AcDbSpline
 62
5
  6
CONTINUOUS
 70
0
 71
3
 72
8
 73
4
 74
0
 42
0.0000001
 43
0.0000001
 44
0.0000000001
 40
0.0
 40
0.0
 40
0.0
 40
0.0
 40
1.0
 40
1.0
 40
1.0
 40
1.0
 10
289.1197234621
 20
11.930228499
 30
0.0
 10
289.0368992133
 20
11.8970988141
 30
0.0
 10
288.9308842725
 20
11.8805339478
 30
0.0
 10
288.8016786499
 20
11.8805339478
 30
0.0
  0
SPLINE
  5
297
100
AcDbEntity
  8
0
100
AcDbSpline
 62
5
  6
CONTINUOUS
 70
0
 71
3
 72
8
 73
4
 74
0
 42
0.0000001
 43
0.0000001
 44
0.0000000001
 40
0.0
 40
0.0
 40
0.0
 40
0.0
 40
1.0
 40
1.0
 40
1.0
 40
1.0
 10
288.8016786499
 20
11.8805339478
 30
0.0
 10
288.3113595671
 20
11.8805339478
 30
0.0
 10
288.0463221426
 20
12.1521972607
 30
0.0
 10
288.0098795385
 20
12.698836758
 30
0.0
  0
SPLINE
  5
298
100
AcDbEntity
  8
0
100
AcDbSpline
 62
5
  6
CONTINUOUS
 70
0
 71
3
 72
8
 73
4
 74
0
 42
0.0000001
 43
0.0000001
 44
0.0000000001
 40
0.0
 40
0.0
 40
0.0
 40
0.0
 40
1.0
 40
1.0
 40
1.0
 40
1.0
 10
290.4150934429
 20
12.698836758
 30
0.0
 10
290.4084674091
 20
13.3051096867
 30
0.0
 10
290.335582201
 20
13.7457342432
 30
0.0
 10
290.1891243119
 20
14.0203428036
 30
0.0
  0
SPLINE
  5
299
100
AcDbEntity
  8
0
100
AcDbSpline
 62
5
  6
CONTINUOUS
 70
0
 71
3
 72
8
 73
4
 74
0
 42
0.0000001
 43
0.0000001
 44
0.0000000001
 40
0.0
 40
0.0
 40
0.0
 40
0.0
 40
1.0
 40
1.0
 40
1.0
 40
1.0
 10
290.1891243119
 20
14.0203428036
 30
0.0
 10
290.0440410776
 20
14.292373886
 30
0.0
 10
289.8485759897
 20
14.4977777336
 30
0.0
 10
289.6034165211
 20
14.6336093901
 30
0.0
  0
SPLINE
  5
29A
100
AcDbEntity
  8
0
100
AcDbSpline
 62
5
  6
CONTINUOUS
 70
0
 71
3
 72
8
 73
4
 74
0
 42
0.0000001
 43
0.0000001
 44
0.0000000001
 40
0.0
 40
0.0
 40
0.0
 40
0.0
 40
1.0
 40
1.0
 40
1.0
 40
1.0
 10
289.6034165211
 20
14.6336093901
 30
0.0
 10
289.3582570524
 20
14.7694410466
 30
0.0
 10
289.0733418174
 20
14.8390132378
 30
0.0
 10
288.7486711068
 20
14.8390132378
 30
0.0
  0
SPLINE
  5
29B
100
AcDbEntity
  8
0
100
AcDbSpline
 62
5
  6
CONTINUOUS
 70
0
 71
3
 72
8
 73
4
 74
0
 42
0.0000001
 43
0.0000001
 44
0.0000000001
 40
0.0
 40
0.0
 40
0.0
 40
0.0
 40
1.0
 40
1.0
 40
1.0
 40
1.0
 10
288.7486711068
 20
14.8390132378
 30
0.0
 10
288.1954057212
 20
14.8390132378
 30
0.0
 10
287.7746589024
 20
14.6634259604
 30
0.0
 10
287.489743862
 20
14.3122516565
 30
0.0
  0
SPLINE
  5
29C
100
AcDbEntity
  8
0
100
AcDbSpline
 62
5
  6
CONTINUOUS
 70
0
 71
3
 72
8
 73
4
 74
0
 42
0.0000001
 43
0.0000001
 44
0.0000000001
 40
0.0
 40
0.0
 40
0.0
 40
0.0
 40
1.0
 40
1.0
 40
1.0
 40
1.0
 10
287.489743862
 20
14.3122516565
 30
0.0
 10
287.2048286505
 20
13.9610771416
 30
0.0
 10
287.0623710693
 20
13.4906358694
 30
0.0
 10
287.0623710693
 20
12.8943018459
 30
0.0
  0
SPLINE
  5
29D
100
AcDbEntity
  8
0
100
AcDbSpline
 62
5
  6
CONTINUOUS
 70
0
 71
3
 72
8
 73
4
 74
0
 42
0.0000001
 43
0.0000001
 44
0.0000000001
 40
0.0
 40
0.0
 40
0.0
 40
0.0
 40
1.0
 40
1.0
 40
1.0
 40
1.0
 10
323.1556764588
 20
10.8343018114
 30
0.0
 10
323.209149424
 20
10.5420003539
 30
0.0
 10
323.3054007927
 20
10.3259514808
 30
0.0
 10
323.4434383104
 20
10.1885457171
 30
0.0
  0
SPLINE
  5
29E
100
AcDbEntity
  8
0
100
AcDbSpline
 62
5
  6
CONTINUOUS
 70
0
 71
3
 72
8
 73
4
 74
0
 42
0.0000001
 43
0.0000001
 44
0.0000000001
 40
0.0
 40
0.0
 40
0.0
 40
0.0
 40
1.0
 40
1.0
 40
1.0
 40
1.0
 10
323.4434383104
 20
10.1885457171
 30
0.0
 10
323.5057170349
 20
10.1265520226
 30
0.0
 10
323.577442345
 20
10.0723361426
 30
0.0
 10
323.6587412443
 20
10.0257665208
 30
0.0
  0
SPLINE
  5
29F
100
AcDbEntity
  8
0
100
AcDbSpline
 62
5
  6
CONTINUOUS
 70
0
 71
3
 72
8
 73
4
 74
0
 42
0.0000001
 43
0.0000001
 44
0.0000000001
 40
0.0
 40
0.0
 40
0.0
 40
0.0
 40
1.0
 40
1.0
 40
1.0
 40
1.0
 10
325.7901119005
 20
14.1481104636
 30
0.0
 10
325.6189982866
 20
14.364159267
 30
0.0
 10
325.4443197536
 20
14.5103099608
 30
0.0
 10
325.2583033909
 20
14.5820448327
 30
0.0
  0
SPLINE
  5
2A0
100
AcDbEntity
  8
0
100
AcDbSpline
 62
5
  6
CONTINUOUS
 70
0
 71
3
 72
8
 73
4
 74
0
 42
0.0000001
 43
0.0000001
 44
0.0000000001
 40
0.0
 40
0.0
 40
0.0
 40
0.0
 40
1.0
 40
1.0
 40
1.0
 40
1.0
 10
325.2583033909
 20
14.5820448327
 30
0.0
 10
325.0735739553
 20
14.6532834172
 30
0.0
 10
324.8703765388
 20
14.6914097094
 30
0.0
 10
324.6493549962
 20
14.6914097094
 30
0.0
  0
SPLINE
  5
2A1
100
AcDbEntity
  8
0
100
AcDbSpline
 62
5
  6
CONTINUOUS
 70
0
 71
3
 72
8
 73
4
 74
0
 42
0.0000001
 43
0.0000001
 44
0.0000000001
 40
0.0
 40
0.0
 40
0.0
 40
0.0
 40
1.0
 40
1.0
 40
1.0
 40
1.0
 10
324.6493549962
 20
14.6914097094
 30
0.0
 10
324.1716630327
 20
14.6914097094
 30
0.0
 10
323.7830927171
 20
14.529373107
 30
0.0
 10
323.4765142233
 20
14.2084769105
 30
0.0
  0
SPLINE
  5
2A2
100
AcDbEntity
  8
0
100
AcDbSpline
 62
5
  6
CONTINUOUS
 70
0
 71
3
 72
8
 73
4
 74
0
 42
0.0000001
 43
0.0000001
 44
0.0000000001
 40
0.0
 40
0.0
 40
0.0
 40
0.0
 40
1.0
 40
1.0
 40
1.0
 40
1.0
 10
323.4765142233
 20
14.2084769105
 30
0.0
 10
323.1699359005
 20
13.887580893
 30
0.0
 10
323.0166467062
 20
13.4332427633
 30
0.0
 10
323.0166467062
 20
12.8422855127
 30
0.0
  0
SPLINE
  5
2A3
100
AcDbEntity
  8
0
100
AcDbSpline
 62
5
  6
CONTINUOUS
 70
0
 71
3
 72
8
 73
4
 74
0
 42
0.0000001
 43
0.0000001
 44
0.0000000001
 40
0.0
 40
0.0
 40
0.0
 40
0.0
 40
1.0
 40
1.0
 40
1.0
 40
1.0
 10
323.0166467062
 20
12.8422855127
 30
0.0
 10
323.0166467062
 20
12.3212264412
 30
0.0
 10
323.1663710597
 20
11.911369009
 30
0.0
 10
323.4719821755
 20
11.6151001442
 30
0.0
  0
SPLINE
  5
2A4
100
AcDbEntity
  8
0
100
AcDbSpline
 62
5
  6
CONTINUOUS
 70
0
 71
3
 72
8
 73
4
 74
0
 42
0.0000001
 43
0.0000001
 44
0.0000000001
 40
0.0
 40
0.0
 40
0.0
 40
0.0
 40
1.0
 40
1.0
 40
1.0
 40
1.0
 10
323.4719821755
 20
11.6151001442
 30
0.0
 10
323.7759629571
 20
11.3204117758
 30
0.0
 10
324.1645333509
 20
11.1742610645
 30
0.0
 10
324.6422251579
 20
11.1742610645
 30
0.0
  0
SPLINE
  5
2A5
100
AcDbEntity
  8
0
100
AcDbSpline
 62
5
  6
CONTINUOUS
 70
0
 71
3
 72
8
 73
4
 74
0
 42
0.0000001
 43
0.0000001
 44
0.0000000001
 40
0.0
 40
0.0
 40
0.0
 40
0.0
 40
1.0
 40
1.0
 40
1.0
 40
1.0
 10
324.6422251579
 20
11.1742610645
 30
0.0
 10
325.0119868296
 20
11.1742610645
 30
0.0
 10
325.3302019963
 20
11.2858319244
 30
0.0
 10
325.594833733
 20
11.5126042573
 30
0.0
  0
SPLINE
  5
2A6
100
AcDbEntity
  8
0
100
AcDbSpline
 62
5
  6
CONTINUOUS
 70
0
 71
3
 72
8
 73
4
 74
0
 42
0.0000001
 43
0.0000001
 44
0.0000000001
 40
0.0
 40
0.0
 40
0.0
 40
0.0
 40
1.0
 40
1.0
 40
1.0
 40
1.0
 10
323.0044592177
 20
14.6153691113
 30
0.0
 10
322.9311028117
 20
14.6217477466
 30
0.0
 10
322.8768830116
 20
14.6249372042
 30
0.0
 10
322.8386100798
 20
14.6249372042
 30
0.0
  0
SPLINE
  5
2A7
100
AcDbEntity
  8
0
100
AcDbSpline
 62
5
  6
CONTINUOUS
 70
0
 71
3
 72
8
 73
4
 74
0
 42
0.0000001
 43
0.0000001
 44
0.0000000001
 40
0.0
 40
0.0
 40
0.0
 40
0.0
 40
1.0
 40
1.0
 40
1.0
 40
1.0
 10
322.8386100798
 20
14.6249372042
 30
0.0
 10
322.5231383754
 20
14.6249372042
 30
0.0
 10
322.2470624875
 20
14.4673543993
 30
0.0
 10
322.0093449831
 20
14.1552961801
 30
0.0
  0
SPLINE
  5
2A8
100
AcDbEntity
  8
0
100
AcDbSpline
 62
5
  6
CONTINUOUS
 70
0
 71
3
 72
8
 73
4
 74
0
 42
0.0000001
 43
0.0000001
 44
0.0000000001
 40
0.0
 40
0.0
 40
0.0
 40
0.0
 40
1.0
 40
1.0
 40
1.0
 40
1.0
 10
319.1832441414
 20
14.000701899
 30
0.0
 10
319.6482164253
 20
14.000701899
 30
0.0
 10
319.9061308039
 20
13.7754202409
 30
0.0
 10
319.9569869581
 20
13.3248567791
 30
0.0
  0
SPLINE
  5
2A9
100
AcDbEntity
  8
0
100
AcDbSpline
 62
5
  6
CONTINUOUS
 70
0
 71
3
 72
8
 73
4
 74
0
 42
0.0000001
 43
0.0000001
 44
0.0000000001
 40
0.0
 40
0.0
 40
0.0
 40
0.0
 40
1.0
 40
1.0
 40
1.0
 40
1.0
 10
318.3659100735
 20
13.3248567791
 30
0.0
 10
318.4458271947
 20
13.7754202409
 30
0.0
 10
318.7182718575
 20
14.000701899
 30
0.0
 10
319.1832441414
 20
14.000701899
 30
0.0
  0
SPLINE
  5
2AA
100
AcDbEntity
  8
0
100
AcDbSpline
 62
5
  6
CONTINUOUS
 70
0
 71
3
 72
8
 73
4
 74
0
 42
0.0000001
 43
0.0000001
 44
0.0000000001
 40
0.0
 40
0.0
 40
0.0
 40
0.0
 40
1.0
 40
1.0
 40
1.0
 40
1.0
 10
316.3495329051
 20
12.854004119
 30
0.0
 10
316.3495329051
 20
12.1471963325
 30
0.0
 10
316.070687063
 20
11.7937923334
 30
0.0
 10
315.5198811627
 20
11.7937923334
 30
0.0
  0
SPLINE
  5
2AB
100
AcDbEntity
  8
0
100
AcDbSpline
 62
5
  6
CONTINUOUS
 70
0
 71
3
 72
8
 73
4
 74
0
 42
0.0000001
 43
0.0000001
 44
0.0000000001
 40
0.0
 40
0.0
 40
0.0
 40
0.0
 40
1.0
 40
1.0
 40
1.0
 40
1.0
 10
315.5198811627
 20
11.7937923334
 30
0.0
 10
315.3615244513
 20
11.7937923334
 30
0.0
 10
315.2272654149
 20
11.8259199569
 30
0.0
 10
315.1165637651
 20
11.892603689
 30
0.0
  0
SPLINE
  5
2AC
100
AcDbEntity
  8
0
100
AcDbSpline
 62
5
  6
CONTINUOUS
 70
0
 71
3
 72
8
 73
4
 74
0
 42
0.0000001
 43
0.0000001
 44
0.0000000001
 40
0.0
 40
0.0
 40
0.0
 40
0.0
 40
1.0
 40
1.0
 40
1.0
 40
1.0
 10
315.1165637651
 20
11.892603689
 30
0.0
 10
314.8485862829
 20
12.0540262033
 30
0.0
 10
314.7143273976
 20
12.3656642143
 30
0.0
 10
314.7143273976
 20
12.8347275309
 30
0.0
  0
SPLINE
  5
2AD
100
AcDbEntity
  8
0
100
AcDbSpline
 62
5
  6
CONTINUOUS
 70
0
 71
3
 72
8
 73
4
 74
0
 42
0.0000001
 43
0.0000001
 44
0.0000000001
 40
0.0
 40
0.0
 40
0.0
 40
0.0
 40
1.0
 40
1.0
 40
1.0
 40
1.0
 10
314.7143273976
 20
12.8347275309
 30
0.0
 10
314.7143273976
 20
13.2106208593
 30
0.0
 10
314.8176035795
 20
13.4933440586
 30
0.0
 10
315.0310078137
 20
13.6829294804
 30
0.0
  0
SPLINE
  5
2AE
100
AcDbEntity
  8
0
100
AcDbSpline
 62
5
  6
CONTINUOUS
 70
0
 71
3
 72
8
 73
4
 74
0
 42
0.0000001
 43
0.0000001
 44
0.0000000001
 40
0.0
 40
0.0
 40
0.0
 40
0.0
 40
1.0
 40
1.0
 40
1.0
 40
1.0
 10
315.0310078137
 20
13.6829294804
 30
0.0
 10
315.1756274751
 20
13.8114076224
 30
0.0
 10
315.3477542433
 20
13.8756627283
 30
0.0
 10
315.5508640173
 20
13.8756627283
 30
0.0
  0
SPLINE
  5
2AF
100
AcDbEntity
  8
0
100
AcDbSpline
 62
5
  6
CONTINUOUS
 70
0
 71
3
 72
8
 73
4
 74
0
 42
0.0000001
 43
0.0000001
 44
0.0000000001
 40
0.0
 40
0.0
 40
0.0
 40
0.0
 40
1.0
 40
1.0
 40
1.0
 40
1.0
 10
315.5508640173
 20
13.8756627283
 30
0.0
 10
315.7918416742
 20
13.8756627283
 30
0.0
 10
315.9880664197
 20
13.7857054108
 30
0.0
 10
316.1326529395
 20
13.6122162388
 30
0.0
  0
SPLINE
  5
2B0
100
AcDbEntity
  8
0
100
AcDbSpline
 62
5
  6
CONTINUOUS
 70
0
 71
3
 72
8
 73
4
 74
0
 42
0.0000001
 43
0.0000001
 44
0.0000000001
 40
0.0
 40
0.0
 40
0.0
 40
0.0
 40
1.0
 40
1.0
 40
1.0
 40
1.0
 10
316.1326529395
 20
13.6122162388
 30
0.0
 10
316.2772394267
 20
13.4387271057
 30
0.0
 10
316.3495329051
 20
13.1849187888
 30
0.0
 10
316.3495329051
 20
12.854004119
 30
0.0
  0
SPLINE
  5
2B1
100
AcDbEntity
  8
0
100
AcDbSpline
 62
5
  6
CONTINUOUS
 70
0
 71
3
 72
8
 73
4
 74
0
 42
0.0000001
 43
0.0000001
 44
0.0000000001
 40
0.0
 40
0.0
 40
0.0
 40
0.0
 40
1.0
 40
1.0
 40
1.0
 40
1.0
 10
314.6867871328
 20
11.7070477572
 30
0.0
 10
314.8520288727
 20
11.2379843524
 30
0.0
 10
315.2134953581
 20
11.0066654089
 30
0.0
 10
315.7711864379
 20
11.0066654089
 30
0.0
  0
SPLINE
  5
2B2
100
AcDbEntity
  8
0
100
AcDbSpline
 62
5
  6
CONTINUOUS
 70
0
 71
3
 72
8
 73
4
 74
0
 42
0.0000001
 43
0.0000001
 44
0.0000000001
 40
0.0
 40
0.0
 40
0.0
 40
0.0
 40
1.0
 40
1.0
 40
1.0
 40
1.0
 10
315.7711864379
 20
11.0066654089
 30
0.0
 10
316.2359289539
 20
11.0066654089
 30
0.0
 10
316.6111654962
 20
11.1769418511
 30
0.0
 10
316.9003386976
 20
11.517494802
 30
0.0
  0
SPLINE
  5
2B3
100
AcDbEntity
  8
0
100
AcDbSpline
 62
5
  6
CONTINUOUS
 70
0
 71
3
 72
8
 73
4
 74
0
 42
0.0000001
 43
0.0000001
 44
0.0000000001
 40
0.0
 40
0.0
 40
0.0
 40
0.0
 40
1.0
 40
1.0
 40
1.0
 40
1.0
 10
316.9003386976
 20
11.517494802
 30
0.0
 10
317.1523505827
 20
11.814283684
 30
0.0
 10
317.2945494453
 20
12.2013557114
 30
0.0
 10
317.3269351566
 20
12.6765843566
 30
0.0
  0
SPLINE
  5
2B4
100
AcDbEntity
  8
0
100
AcDbSpline
 62
5
  6
CONTINUOUS
 70
0
 71
3
 72
8
 73
4
 74
0
 42
0.0000001
 43
0.0000001
 44
0.0000000001
 40
0.0
 40
0.0
 40
0.0
 40
0.0
 40
1.0
 40
1.0
 40
1.0
 40
1.0
 10
317.3269351566
 20
12.6765843566
 30
0.0
 10
317.362213857
 20
12.220112638
 30
0.0
 10
317.5269090477
 20
11.843182429
 30
0.0
 10
317.8210206877
 20
11.5457936663
 30
0.0
  0
SPLINE
  5
2B5
100
AcDbEntity
  8
0
100
AcDbSpline
 62
5
  6
CONTINUOUS
 70
0
 71
3
 72
8
 73
4
 74
0
 42
0.0000001
 43
0.0000001
 44
0.0000000001
 40
0.0
 40
0.0
 40
0.0
 40
0.0
 40
1.0
 40
1.0
 40
1.0
 40
1.0
 10
317.8210206877
 20
11.5457936663
 30
0.0
 10
318.1552195173
 20
11.2078710448
 30
0.0
 10
318.6092939286
 20
11.042222709
 30
0.0
 10
319.1905092835
 20
11.042222709
 30
0.0
  0
SPLINE
  5
2B6
100
AcDbEntity
  8
0
100
AcDbSpline
 62
5
  6
CONTINUOUS
 70
0
 71
3
 72
8
 73
4
 74
0
 42
0.0000001
 43
0.0000001
 44
0.0000000001
 40
0.0
 40
0.0
 40
0.0
 40
0.0
 40
1.0
 40
1.0
 40
1.0
 40
1.0
 10
319.1905092835
 20
11.042222709
 30
0.0
 10
319.564666733
 20
11.042222709
 30
0.0
 10
319.8952328515
 20
11.1184209454
 30
0.0
 10
320.1777994201
 20
11.2621403647
 30
0.0
  0
SPLINE
  5
2B7
100
AcDbEntity
  8
0
100
AcDbSpline
 62
5
  6
CONTINUOUS
 70
0
 71
3
 72
8
 73
4
 74
0
 42
0.0000001
 43
0.0000001
 44
0.0000000001
 40
0.0
 40
0.0
 40
0.0
 40
0.0
 40
1.0
 40
1.0
 40
1.0
 40
1.0
 10
320.1777994201
 20
11.2621403647
 30
0.0
 10
320.4619177628
 20
11.4066490496
 30
0.0
 10
320.7198321413
 20
11.7048160614
 30
0.0
 10
320.9523182833
 20
12.1520665426
 30
0.0
  0
SPLINE
  5
2B8
100
AcDbEntity
  8
0
100
AcDbSpline
 62
5
  6
CONTINUOUS
 70
0
 71
3
 72
8
 73
4
 74
0
 42
0.0000001
 43
0.0000001
 44
0.0000000001
 40
0.0
 40
0.0
 40
0.0
 40
0.0
 40
1.0
 40
1.0
 40
1.0
 40
1.0
 10
319.9133957865
 20
12.1520665426
 30
0.0
 10
319.77898994
 20
12.0195479031
 30
0.0
 10
319.6663793603
 20
11.936723717
 30
0.0
 10
319.5755645149
 20
11.9035940822
 30
0.0
  0
SPLINE
  5
2B9
100
AcDbEntity
  8
0
100
AcDbSpline
 62
5
  6
CONTINUOUS
 70
0
 71
3
 72
8
 73
4
 74
0
 42
0.0000001
 43
0.0000001
 44
0.0000000001
 40
0.0
 40
0.0
 40
0.0
 40
0.0
 40
1.0
 40
1.0
 40
1.0
 40
1.0
 10
319.5755645149
 20
11.9035940822
 30
0.0
 10
319.484749532
 20
11.8704643972
 30
0.0
 10
319.368506461
 20
11.8538995309
 30
0.0
 10
319.2268353129
 20
11.8538995309
 30
0.0
  0
SPLINE
  5
2BA
100
AcDbEntity
  8
0
100
AcDbSpline
 62
5
  6
CONTINUOUS
 70
0
 71
3
 72
8
 73
4
 74
0
 42
0.0000001
 43
0.0000001
 44
0.0000000001
 40
0.0
 40
0.0
 40
0.0
 40
0.0
 40
1.0
 40
1.0
 40
1.0
 40
1.0
 10
319.2268353129
 20
11.8538995309
 30
0.0
 10
318.6892111296
 20
11.8538995309
 30
0.0
 10
318.3986033724
 20
12.1255628438
 30
0.0
 10
318.3586448516
 20
12.6722023411
 30
0.0
  0
SPLINE
  5
2BB
100
AcDbEntity
  8
0
100
AcDbSpline
 62
5
  6
CONTINUOUS
 70
0
 71
3
 72
8
 73
4
 74
0
 42
0.0000001
 43
0.0000001
 44
0.0000000001
 40
0.0
 40
0.0
 40
0.0
 40
0.0
 40
1.0
 40
1.0
 40
1.0
 40
1.0
 10
320.9959094548
 20
12.6722023411
 30
0.0
 10
320.9886441533
 20
13.2784752698
 30
0.0
 10
320.9087271117
 20
13.7190998263
 30
0.0
 10
320.7481392297
 20
13.9937083867
 30
0.0
  0
SPLINE
  5
2BC
100
AcDbEntity
  8
0
100
AcDbSpline
 62
5
  6
CONTINUOUS
 70
0
 71
3
 72
8
 73
4
 74
0
 42
0.0000001
 43
0.0000001
 44
0.0000000001
 40
0.0
 40
0.0
 40
0.0
 40
0.0
 40
1.0
 40
1.0
 40
1.0
 40
1.0
 10
320.7481392297
 20
13.9937083867
 30
0.0
 10
320.5890586267
 20
14.265739469
 30
0.0
 10
320.3747354197
 20
14.4711433168
 30
0.0
 10
320.1059234077
 20
14.6069749732
 30
0.0
  0
SPLINE
  5
2BD
100
AcDbEntity
  8
0
100
AcDbSpline
 62
5
  6
CONTINUOUS
 70
0
 71
3
 72
8
 73
4
 74
0
 42
0.0000001
 43
0.0000001
 44
0.0000000001
 40
0.0
 40
0.0
 40
0.0
 40
0.0
 40
1.0
 40
1.0
 40
1.0
 40
1.0
 10
320.1059234077
 20
14.6069749732
 30
0.0
 10
319.8371113957
 20
14.7428066297
 30
0.0
 10
319.5247080528
 20
14.8123788209
 30
0.0
 10
319.1687136977
 20
14.8123788209
 30
0.0
  0
SPLINE
  5
2BE
100
AcDbEntity
  8
0
100
AcDbSpline
 62
5
  6
CONTINUOUS
 70
0
 71
3
 72
8
 73
4
 74
0
 42
0.0000001
 43
0.0000001
 44
0.0000000001
 40
0.0
 40
0.0
 40
0.0
 40
0.0
 40
1.0
 40
1.0
 40
1.0
 40
1.0
 10
319.1687136977
 20
14.8123788209
 30
0.0
 10
318.5620702657
 20
14.8123788209
 30
0.0
 10
318.1007305528
 20
14.6367915435
 30
0.0
 10
317.7883274233
 20
14.2856172396
 30
0.0
  0
SPLINE
  5
2BF
100
AcDbEntity
  8
0
100
AcDbSpline
 62
5
  6
CONTINUOUS
 70
0
 71
3
 72
8
 73
4
 74
0
 42
0.0000001
 43
0.0000001
 44
0.0000000001
 40
0.0
 40
0.0
 40
0.0
 40
0.0
 40
1.0
 40
1.0
 40
1.0
 40
1.0
 10
317.7883274233
 20
14.2856172396
 30
0.0
 10
317.5159845347
 20
13.979474902
 30
0.0
 10
317.3623514319
 20
13.5826924976
 30
0.0
 10
317.3274280793
 20
13.0908801504
 30
0.0
  0
SPLINE
  5
2C0
100
AcDbEntity
  8
0
100
AcDbSpline
 62
5
  6
CONTINUOUS
 70
0
 71
3
 72
8
 73
4
 74
0
 42
0.0000001
 43
0.0000001
 44
0.0000000001
 40
0.0
 40
0.0
 40
0.0
 40
0.0
 40
1.0
 40
1.0
 40
1.0
 40
1.0
 10
317.3274280793
 20
13.0908801504
 30
0.0
 10
317.2973195635
 20
13.5270048729
 30
0.0
 10
317.1652841256
 20
13.8857069868
 30
0.0
 10
316.9313216771
 20
14.1712370124
 30
0.0
  0
SPLINE
  5
2C1
100
AcDbEntity
  8
0
100
AcDbSpline
 62
5
  6
CONTINUOUS
 70
0
 71
3
 72
8
 73
4
 74
0
 42
0.0000001
 43
0.0000001
 44
0.0000000001
 40
0.0
 40
0.0
 40
0.0
 40
0.0
 40
1.0
 40
1.0
 40
1.0
 40
1.0
 10
316.9313216771
 20
14.1712370124
 30
0.0
 10
316.6628037382
 20
14.4989388914
 30
0.0
 10
316.287567196
 20
14.6627897498
 30
0.0
 10
315.8056118822
 20
14.6627897498
 30
0.0
  0
SPLINE
  5
2C2
100
AcDbEntity
  8
0
100
AcDbSpline
 62
5
  6
CONTINUOUS
 70
0
 71
3
 72
8
 73
4
 74
0
 42
0.0000001
 43
0.0000001
 44
0.0000000001
 40
0.0
 40
0.0
 40
0.0
 40
0.0
 40
1.0
 40
1.0
 40
1.0
 40
1.0
 10
315.8056118822
 20
14.6627897498
 30
0.0
 10
315.5852894616
 20
14.6627897498
 30
0.0
 10
315.3856222775
 20
14.6210237618
 30
0.0
 10
315.2062726577
 20
14.5381314137
 30
0.0
  0
SPLINE
  5
2C3
100
AcDbEntity
  8
0
100
AcDbSpline
 62
5
  6
CONTINUOUS
 70
0
 71
3
 72
8
 73
4
 74
0
 42
0.0000001
 43
0.0000001
 44
0.0000000001
 40
0.0
 40
0.0
 40
0.0
 40
0.0
 40
1.0
 40
1.0
 40
1.0
 40
1.0
 10
315.2062726577
 20
14.5381314137
 30
0.0
 10
315.0241557921
 20
14.4539600916
 30
0.0
 10
314.8623564909
 20
14.2901092331
 30
0.0
 10
314.7212124261
 20
14.0459392102
 30
0.0
  0
SPLINE
  5
2C4
100
AcDbEntity
  8
0
100
AcDbSpline
 62
5
  6
CONTINUOUS
 70
0
 71
3
 72
8
 73
4
 74
0
 42
0.0000001
 43
0.0000001
 44
0.0000000001
 40
0.0
 40
0.0
 40
0.0
 40
0.0
 40
1.0
 40
1.0
 40
1.0
 40
1.0
 10
310.304646698
 20
12.3026086242
 30
0.0
 10
310.3588888709
 20
11.4743669815
 30
0.0
 10
310.9352119494
 20
11.0635590952
 30
0.0
 10
312.037006046
 20
11.0635590952
 30
0.0
  0
SPLINE
  5
2C5
100
AcDbEntity
  8
0
100
AcDbSpline
 62
5
  6
CONTINUOUS
 70
0
 71
3
 72
8
 73
4
 74
0
 42
0.0000001
 43
0.0000001
 44
0.0000000001
 40
0.0
 40
0.0
 40
0.0
 40
0.0
 40
1.0
 40
1.0
 40
1.0
 40
1.0
 10
312.037006046
 20
11.0635590952
 30
0.0
 10
312.5658671766
 20
11.0635590952
 30
0.0
 10
312.962513099
 20
11.1761999652
 30
0.0
 10
313.2303337669
 20
11.4014816274
 30
0.0
  0
SPLINE
  5
2C6
100
AcDbEntity
  8
0
100
AcDbSpline
 62
5
  6
CONTINUOUS
 70
0
 71
3
 72
8
 73
4
 74
0
 42
0.0000001
 43
0.0000001
 44
0.0000000001
 40
0.0
 40
0.0
 40
0.0
 40
0.0
 40
1.0
 40
1.0
 40
1.0
 40
1.0
 10
313.2303337669
 20
11.4014816274
 30
0.0
 10
313.4981546035
 20
11.6267634316
 30
0.0
 10
313.6337599987
 20
11.9249304433
 30
0.0
 10
313.6337599987
 20
12.2959827359
 30
0.0
  0
SPLINE
  5
2C7
100
AcDbEntity
  8
0
100
AcDbSpline
 62
5
  6
CONTINUOUS
 70
0
 71
3
 72
8
 73
4
 74
0
 42
0.0000001
 43
0.0000001
 44
0.0000000001
 40
0.0
 40
0.0
 40
0.0
 40
0.0
 40
1.0
 40
1.0
 40
1.0
 40
1.0
 10
313.6337599987
 20
12.2959827359
 30
0.0
 10
313.6337599987
 20
12.4649440522
 30
0.0
 10
313.5998584267
 20
12.6140274854
 30
0.0
 10
313.5314940001
 20
12.7396271264
 30
0.0
  0
SPLINE
  5
2C8
100
AcDbEntity
  8
0
100
AcDbSpline
 62
5
  6
CONTINUOUS
 70
0
 71
3
 72
8
 73
4
 74
0
 42
0.0000001
 43
0.0000001
 44
0.0000000001
 40
0.0
 40
0.0
 40
0.0
 40
0.0
 40
1.0
 40
1.0
 40
1.0
 40
1.0
 10
313.5314940001
 20
12.7396271264
 30
0.0
 10
313.4303517571
 20
12.9254464192
 30
0.0
 10
313.2540647136
 20
13.0645909472
 30
0.0
 10
312.9962486325
 20
13.1602377157
 30
0.0
  0
SPLINE
  5
2C9
100
AcDbEntity
  8
0
100
AcDbSpline
 62
5
  6
CONTINUOUS
 70
0
 71
3
 72
8
 73
4
 74
0
 42
0.0000001
 43
0.0000001
 44
0.0000000001
 40
0.0
 40
0.0
 40
0.0
 40
0.0
 40
1.0
 40
1.0
 40
1.0
 40
1.0
 10
311.8268175792
 20
13.4488950892
 30
0.0
 10
311.7081628212
 20
13.4687728996
 30
0.0
 10
311.6098488873
 20
13.5019026322
 30
0.0
 10
311.5303035452
 20
13.5454340142
 30
0.0
  0
SPLINE
  5
2CA
100
AcDbEntity
  8
0
100
AcDbSpline
 62
5
  6
CONTINUOUS
 70
0
 71
3
 72
8
 73
4
 74
0
 42
0.0000001
 43
0.0000001
 44
0.0000000001
 40
0.0
 40
0.0
 40
0.0
 40
0.0
 40
1.0
 40
1.0
 40
1.0
 40
1.0
 10
311.5303035452
 20
13.5454340142
 30
0.0
 10
311.4403420689
 20
13.5946656508
 30
0.0
 10
311.3962703825
 20
13.6741767473
 30
0.0
 10
311.3962703825
 20
13.7868178673
 30
0.0
  0
SPLINE
  5
2CB
100
AcDbEntity
  8
0
100
AcDbSpline
 62
5
  6
CONTINUOUS
 70
0
 71
3
 72
8
 73
4
 74
0
 42
0.0000001
 43
0.0000001
 44
0.0000000001
 40
0.0
 40
0.0
 40
0.0
 40
0.0
 40
1.0
 40
1.0
 40
1.0
 40
1.0
 10
311.3962703825
 20
13.7868178673
 30
0.0
 10
311.3962703825
 20
13.8862066288
 30
0.0
 10
311.4437322559
 20
13.9624048538
 30
0.0
 10
311.5427881223
 20
14.0208193034
 30
0.0
  0
SPLINE
  5
2CC
100
AcDbEntity
  8
0
100
AcDbSpline
 62
5
  6
CONTINUOUS
 70
0
 71
3
 72
8
 73
4
 74
0
 42
0.0000001
 43
0.0000001
 44
0.0000000001
 40
0.0
 40
0.0
 40
0.0
 40
0.0
 40
1.0
 40
1.0
 40
1.0
 40
1.0
 10
311.5427881223
 20
14.0208193034
 30
0.0
 10
311.6403601236
 20
14.0783586998
 30
0.0
 10
311.7657951067
 20
14.108175561
 30
0.0
 10
311.914961101
 20
14.108175561
 30
0.0
  0
SPLINE
  5
2CD
100
AcDbEntity
  8
0
100
AcDbSpline
 62
5
  6
CONTINUOUS
 70
0
 71
3
 72
8
 73
4
 74
0
 42
0.0000001
 43
0.0000001
 44
0.0000000001
 40
0.0
 40
0.0
 40
0.0
 40
0.0
 40
1.0
 40
1.0
 40
1.0
 40
1.0
 10
311.914961101
 20
14.108175561
 30
0.0
 10
312.2810957871
 20
14.108175561
 30
0.0
 10
312.4912842539
 20
13.9491530771
 30
0.0
 10
312.5523065775
 20
13.6311084003
 30
0.0
  0
SPLINE
  5
2CE
100
AcDbEntity
  8
0
100
AcDbSpline
 62
5
  6
CONTINUOUS
 70
0
 71
3
 72
8
 73
4
 74
0
 42
0.0000001
 43
0.0000001
 44
0.0000000001
 40
0.0
 40
0.0
 40
0.0
 40
0.0
 40
1.0
 40
1.0
 40
1.0
 40
1.0
 10
313.521885317
 20
13.6311084003
 30
0.0
 10
313.4676432185
 20
14.4328462715
 30
0.0
 10
312.9320017139
 20
14.8337152071
 30
0.0
 10
311.914961101
 20
14.8337152071
 30
0.0
  0
SPLINE
  5
2CF
100
AcDbEntity
  8
0
100
AcDbSpline
 62
5
  6
CONTINUOUS
 70
0
 71
3
 72
8
 73
4
 74
0
 42
0.0000001
 43
0.0000001
 44
0.0000000001
 40
0.0
 40
0.0
 40
0.0
 40
0.0
 40
1.0
 40
1.0
 40
1.0
 40
1.0
 10
311.914961101
 20
14.8337152071
 30
0.0
 10
311.453902668
 20
14.8337152071
 30
0.0
 10
311.0911581688
 20
14.7277004118
 30
0.0
 10
310.8260520696
 20
14.5164828277
 30
0.0
  0
SPLINE
  5
2D0
100
AcDbEntity
  8
0
100
AcDbSpline
 62
5
  6
CONTINUOUS
 70
0
 71
3
 72
8
 73
4
 74
0
 42
0.0000001
 43
0.0000001
 44
0.0000000001
 40
0.0
 40
0.0
 40
0.0
 40
0.0
 40
1.0
 40
1.0
 40
1.0
 40
1.0
 10
310.8260520696
 20
14.5164828277
 30
0.0
 10
310.5589068884
 20
14.3036406488
 30
0.0
 10
310.4266915685
 20
14.0187255592
 30
0.0
 10
310.4266915685
 20
13.6609249706
 30
0.0
  0
SPLINE
  5
2D1
100
AcDbEntity
  8
0
100
AcDbSpline
 62
5
  6
CONTINUOUS
 70
0
 71
3
 72
8
 73
4
 74
0
 42
0.0000001
 43
0.0000001
 44
0.0000000001
 40
0.0
 40
0.0
 40
0.0
 40
0.0
 40
1.0
 40
1.0
 40
1.0
 40
1.0
 10
310.4266915685
 20
13.6609249706
 30
0.0
 10
310.4266915685
 20
13.2733079572
 30
0.0
 10
310.5656871507
 20
13.0115835495
 30
0.0
 10
310.8432775679
 20
12.8716824001
 30
0.0
  0
SPLINE
  5
2D2
100
AcDbEntity
  8
0
100
AcDbSpline
 62
5
  6
CONTINUOUS
 70
0
 71
3
 72
8
 73
4
 74
0
 42
0.0000001
 43
0.0000001
 44
0.0000000001
 40
0.0
 40
0.0
 40
0.0
 40
0.0
 40
1.0
 40
1.0
 40
1.0
 40
1.0
 10
310.8432775679
 20
12.8716824001
 30
0.0
 10
311.1047186935
 20
12.7399202366
 30
0.0
 10
311.450512481
 20
12.6405313296
 30
0.0
 10
311.8809086285
 20
12.5700860884
 30
0.0
  0
SPLINE
  5
2D3
100
AcDbEntity
  8
0
100
AcDbSpline
 62
5
  6
CONTINUOUS
 70
0
 71
3
 72
8
 73
4
 74
0
 42
0.0000001
 43
0.0000001
 44
0.0000000001
 40
0.0
 40
0.0
 40
0.0
 40
0.0
 40
1.0
 40
1.0
 40
1.0
 40
1.0
 10
311.8809086285
 20
12.5700860884
 30
0.0
 10
312.138710018
 20
12.5278903551
 30
0.0
 10
312.3421182596
 20
12.4715699406
 30
0.0
 10
312.4835089868
 20
12.403380997
 30
0.0
  0
SPLINE
  5
2D4
100
AcDbEntity
  8
0
100
AcDbSpline
 62
5
  6
CONTINUOUS
 70
0
 71
3
 72
8
 73
4
 74
0
 42
0.0000001
 43
0.0000001
 44
0.0000000001
 40
0.0
 40
0.0
 40
0.0
 40
0.0
 40
1.0
 40
1.0
 40
1.0
 40
1.0
 10
312.4835089868
 20
12.403380997
 30
0.0
 10
312.6031586379
 20
12.3456771894
 30
0.0
 10
312.6641811105
 20
12.2529141707
 30
0.0
 10
312.6641811105
 20
12.1203954584
 30
0.0
  0
SPLINE
  5
2D5
100
AcDbEntity
  8
0
100
AcDbSpline
 62
5
  6
CONTINUOUS
 70
0
 71
3
 72
8
 73
4
 74
0
 42
0.0000001
 43
0.0000001
 44
0.0000000001
 40
0.0
 40
0.0
 40
0.0
 40
0.0
 40
1.0
 40
1.0
 40
1.0
 40
1.0
 10
312.6641811105
 20
12.1203954584
 30
0.0
 10
312.6641811105
 20
12.0210064788
 30
0.0
 10
312.6031586379
 20
11.9414953096
 30
0.0
 10
312.4875334146
 20
11.8825422606
 30
0.0
  0
SPLINE
  5
2D6
100
AcDbEntity
  8
0
100
AcDbSpline
 62
5
  6
CONTINUOUS
 70
0
 71
3
 72
8
 73
4
 74
0
 42
0.0000001
 43
0.0000001
 44
0.0000000001
 40
0.0
 40
0.0
 40
0.0
 40
0.0
 40
1.0
 40
1.0
 40
1.0
 40
1.0
 10
312.4875334146
 20
11.8825422606
 30
0.0
 10
312.3692393089
 20
11.8222284467
 30
0.0
 10
312.2234635016
 20
11.7924118037
 30
0.0
 10
312.0505664962
 20
11.7924118037
 30
0.0
  0
SPLINE
  5
2D7
100
AcDbEntity
  8
0
100
AcDbSpline
 62
5
  6
CONTINUOUS
 70
0
 71
3
 72
8
 73
4
 74
0
 42
0.0000001
 43
0.0000001
 44
0.0000000001
 40
0.0
 40
0.0
 40
0.0
 40
0.0
 40
1.0
 40
1.0
 40
1.0
 40
1.0
 10
312.0505664962
 20
11.7924118037
 30
0.0
 10
311.8708894145
 20
11.7924118037
 30
0.0
 10
311.7047727831
 20
11.8222284467
 30
0.0
 10
311.5519433713
 20
11.8878770667
 30
0.0
  0
SPLINE
  5
2D8
100
AcDbEntity
  8
0
100
AcDbSpline
 62
5
  6
CONTINUOUS
 70
0
 71
3
 72
8
 73
4
 74
0
 42
0.0000001
 43
0.0000001
 44
0.0000000001
 40
0.0
 40
0.0
 40
0.0
 40
0.0
 40
1.0
 40
1.0
 40
1.0
 40
1.0
 10
311.5519433713
 20
11.8878770667
 30
0.0
 10
311.3962703825
 20
11.954747159
 30
0.0
 10
311.3047367481
 20
12.0905788154
 30
0.0
 10
311.2742255119
 20
12.3026086242
 30
0.0
  0
SPLINE
  5
2D9
100
AcDbEntity
  8
0
100
AcDbSpline
 62
5
  6
CONTINUOUS
 70
0
 71
3
 72
8
 73
4
 74
0
 42
0.0000001
 43
0.0000001
 44
0.0000000001
 40
0.0
 40
0.0
 40
0.0
 40
0.0
 40
1.0
 40
1.0
 40
1.0
 40
1.0
 10
306.6588342911
 20
13.3541931653
 30
0.0
 10
306.7387514124
 20
13.8047566271
 30
0.0
 10
307.0111960751
 20
14.0300382852
 30
0.0
 10
307.4761683591
 20
14.0300382852
 30
0.0
  0
SPLINE
  5
2DA
100
AcDbEntity
  8
0
100
AcDbSpline
 62
5
  6
CONTINUOUS
 70
0
 71
3
 72
8
 73
4
 74
0
 42
0.0000001
 43
0.0000001
 44
0.0000000001
 40
0.0
 40
0.0
 40
0.0
 40
0.0
 40
1.0
 40
1.0
 40
1.0
 40
1.0
 10
307.4761683591
 20
14.0300382852
 30
0.0
 10
307.941140643
 20
14.0300382852
 30
0.0
 10
308.1990550215
 20
13.8047566271
 30
0.0
 10
308.2499111757
 20
13.3541931653
 30
0.0
  0
SPLINE
  5
2DB
100
AcDbEntity
  8
0
100
AcDbSpline
 62
5
  6
CONTINUOUS
 70
0
 71
3
 72
8
 73
4
 74
0
 42
0.0000001
 43
0.0000001
 44
0.0000000001
 40
0.0
 40
0.0
 40
0.0
 40
0.0
 40
1.0
 40
1.0
 40
1.0
 40
1.0
 10
300.346961101
 20
14.8377152071
 30
0.0
 10
299.885902668
 20
14.8377152071
 30
0.0
 10
299.5231581688
 20
14.7317004118
 30
0.0
 10
299.2580520696
 20
14.5204828277
 30
0.0
  0
SPLINE
  5
2DC
100
AcDbEntity
  8
0
100
AcDbSpline
 62
5
  6
CONTINUOUS
 70
0
 71
3
 72
8
 73
4
 74
0
 42
0.0000001
 43
0.0000001
 44
0.0000000001
 40
0.0
 40
0.0
 40
0.0
 40
0.0
 40
1.0
 40
1.0
 40
1.0
 40
1.0
 10
299.2580520696
 20
14.5204828277
 30
0.0
 10
298.9909068884
 20
14.3076406488
 30
0.0
 10
298.8586915685
 20
14.0227255592
 30
0.0
 10
298.8586915685
 20
13.6649249706
 30
0.0
  0
SPLINE
  5
2DD
100
AcDbEntity
  8
0
100
AcDbSpline
 62
5
  6
CONTINUOUS
 70
0
 71
3
 72
8
 73
4
 74
0
 42
0.0000001
 43
0.0000001
 44
0.0000000001
 40
0.0
 40
0.0
 40
0.0
 40
0.0
 40
1.0
 40
1.0
 40
1.0
 40
1.0
 10
298.8586915685
 20
13.6649249706
 30
0.0
 10
298.8586915685
 20
13.2773079572
 30
0.0
 10
298.9976871507
 20
13.0155835495
 30
0.0
 10
299.2752775679
 20
12.8756824001
 30
0.0
  0
SPLINE
  5
2DE
100
AcDbEntity
  8
0
100
AcDbSpline
 62
5
  6
CONTINUOUS
 70
0
 71
3
 72
8
 73
4
 74
0
 42
0.0000001
 43
0.0000001
 44
0.0000000001
 40
0.0
 40
0.0
 40
0.0
 40
0.0
 40
1.0
 40
1.0
 40
1.0
 40
1.0
 10
299.2752775679
 20
12.8756824001
 30
0.0
 10
299.5367186935
 20
12.7439202366
 30
0.0
 10
299.882512481
 20
12.6445313296
 30
0.0
 10
300.3129086285
 20
12.5740860884
 30
0.0
  0
SPLINE
  5
2DF
100
AcDbEntity
  8
0
100
AcDbSpline
 62
5
  6
CONTINUOUS
 70
0
 71
3
 72
8
 73
4
 74
0
 42
0.0000001
 43
0.0000001
 44
0.0000000001
 40
0.0
 40
0.0
 40
0.0
 40
0.0
 40
1.0
 40
1.0
 40
1.0
 40
1.0
 10
300.3129086285
 20
12.5740860884
 30
0.0
 10
300.570710018
 20
12.5318903551
 30
0.0
 10
300.7741182596
 20
12.4755699406
 30
0.0
 10
300.9155089868
 20
12.407380997
 30
0.0
  0
SPLINE
  5
2E0
100
AcDbEntity
  8
0
100
AcDbSpline
 62
5
  6
CONTINUOUS
 70
0
 71
3
 72
8
 73
4
 74
0
 42
0.0000001
 43
0.0000001
 44
0.0000000001
 40
0.0
 40
0.0
 40
0.0
 40
0.0
 40
1.0
 40
1.0
 40
1.0
 40
1.0
 10
300.9155089868
 20
12.407380997
 30
0.0
 10
301.0351586379
 20
12.3496771894
 30
0.0
 10
301.0961811105
 20
12.2569141707
 30
0.0
 10
301.0961811105
 20
12.1243954584
 30
0.0
  0
SPLINE
  5
2E1
100
AcDbEntity
  8
0
100
AcDbSpline
 62
5
  6
CONTINUOUS
 70
0
 71
3
 72
8
 73
4
 74
0
 42
0.0000001
 43
0.0000001
 44
0.0000000001
 40
0.0
 40
0.0
 40
0.0
 40
0.0
 40
1.0
 40
1.0
 40
1.0
 40
1.0
 10
301.0961811105
 20
12.1243954584
 30
0.0
 10
301.0961811105
 20
12.0250064788
 30
0.0
 10
301.0351586379
 20
11.9454953096
 30
0.0
 10
300.9195334146
 20
11.8865422606
 30
0.0
  0
SPLINE
  5
2E2
100
AcDbEntity
  8
0
100
AcDbSpline
 62
5
  6
CONTINUOUS
 70
0
 71
3
 72
8
 73
4
 74
0
 42
0.0000001
 43
0.0000001
 44
0.0000000001
 40
0.0
 40
0.0
 40
0.0
 40
0.0
 40
1.0
 40
1.0
 40
1.0
 40
1.0
 10
300.9195334146
 20
11.8865422606
 30
0.0
 10
300.8012393089
 20
11.8262284467
 30
0.0
 10
300.6554635016
 20
11.7964118037
 30
0.0
 10
300.4825664962
 20
11.7964118037
 30
0.0
  0
SPLINE
  5
2E3
100
AcDbEntity
  8
0
100
AcDbSpline
 62
5
  6
CONTINUOUS
 70
0
 71
3
 72
8
 73
4
 74
0
 42
0.0000001
 43
0.0000001
 44
0.0000000001
 40
0.0
 40
0.0
 40
0.0
 40
0.0
 40
1.0
 40
1.0
 40
1.0
 40
1.0
 10
300.4825664962
 20
11.7964118037
 30
0.0
 10
300.3028894145
 20
11.7964118037
 30
0.0
 10
300.1367727831
 20
11.8262284467
 30
0.0
 10
299.9839433713
 20
11.8918770667
 30
0.0
  0
SPLINE
  5
2E4
100
AcDbEntity
  8
0
100
AcDbSpline
 62
5
  6
CONTINUOUS
 70
0
 71
3
 72
8
 73
4
 74
0
 42
0.0000001
 43
0.0000001
 44
0.0000000001
 40
0.0
 40
0.0
 40
0.0
 40
0.0
 40
1.0
 40
1.0
 40
1.0
 40
1.0
 10
299.9839433713
 20
11.8918770667
 30
0.0
 10
299.8282703825
 20
11.958747159
 30
0.0
 10
299.7367367481
 20
12.0945788154
 30
0.0
 10
299.7062255119
 20
12.3066086242
 30
0.0
  0
SPLINE
  5
2E5
100
AcDbEntity
  8
0
100
AcDbSpline
 62
5
  6
CONTINUOUS
 70
0
 71
3
 72
8
 73
4
 74
0
 42
0.0000001
 43
0.0000001
 44
0.0000000001
 40
0.0
 40
0.0
 40
0.0
 40
0.0
 40
1.0
 40
1.0
 40
1.0
 40
1.0
 10
298.736646698
 20
12.3066086242
 30
0.0
 10
298.7908888709
 20
11.4783669815
 30
0.0
 10
299.3672119494
 20
11.0675590952
 30
0.0
 10
300.469006046
 20
11.0675590952
 30
0.0
  0
SPLINE
  5
2E6
100
AcDbEntity
  8
0
100
AcDbSpline
 62
5
  6
CONTINUOUS
 70
0
 71
3
 72
8
 73
4
 74
0
 42
0.0000001
 43
0.0000001
 44
0.0000000001
 40
0.0
 40
0.0
 40
0.0
 40
0.0
 40
1.0
 40
1.0
 40
1.0
 40
1.0
 10
300.469006046
 20
11.0675590952
 30
0.0
 10
300.9978671766
 20
11.0675590952
 30
0.0
 10
301.394513099
 20
11.1801999652
 30
0.0
 10
301.6623337669
 20
11.4054816274
 30
0.0
  0
SPLINE
  5
2E7
100
AcDbEntity
  8
0
100
AcDbSpline
 62
5
  6
CONTINUOUS
 70
0
 71
3
 72
8
 73
4
 74
0
 42
0.0000001
 43
0.0000001
 44
0.0000000001
 40
0.0
 40
0.0
 40
0.0
 40
0.0
 40
1.0
 40
1.0
 40
1.0
 40
1.0
 10
301.6623337669
 20
11.4054816274
 30
0.0
 10
301.8772432581
 20
11.5862562023
 30
0.0
 10
302.0070184342
 20
11.8139619992
 30
0.0
 10
302.0499077253
 20
12.0885990558
 30
0.0
  0
SPLINE
  5
2E8
100
AcDbEntity
  8
0
100
AcDbSpline
 62
5
  6
CONTINUOUS
 70
0
 71
3
 72
8
 73
4
 74
0
 42
0.0000001
 43
0.0000001
 44
0.0000000001
 40
0.0
 40
0.0
 40
0.0
 40
0.0
 40
1.0
 40
1.0
 40
1.0
 40
1.0
 10
303.0470105273
 20
11.3525988614
 30
0.0
 10
303.1407403293
 20
11.2875641708
 30
0.0
 10
303.2311583027
 20
11.2416009321
 30
0.0
 10
303.3177741427
 20
11.2147091516
 30
0.0
  0
SPLINE
  5
2E9
100
AcDbEntity
  8
0
100
AcDbSpline
 62
5
  6
CONTINUOUS
 70
0
 71
3
 72
8
 73
4
 74
0
 42
0.0000001
 43
0.0000001
 44
0.0000000001
 40
0.0
 40
0.0
 40
0.0
 40
0.0
 40
1.0
 40
1.0
 40
1.0
 40
1.0
 10
303.3177741427
 20
11.2147091516
 30
0.0
 10
303.4672293091
 20
11.1683075288
 30
0.0
 10
303.6308344836
 20
11.1399729019
 30
0.0
 10
303.808589771
 20
11.1342992693
 30
0.0
  0
SPLINE
  5
2EA
100
AcDbEntity
  8
0
100
AcDbSpline
 62
5
  6
CONTINUOUS
 70
0
 71
3
 72
8
 73
4
 74
0
 42
0.0000001
 43
0.0000001
 44
0.0000000001
 40
0.0
 40
0.0
 40
0.0
 40
0.0
 40
1.0
 40
1.0
 40
1.0
 40
1.0
 10
305.6392443432
 20
12.5378979906
 30
0.0
 10
305.698492677
 20
12.156137428
 30
0.0
 10
305.8567262068
 20
11.8352147962
 30
0.0
 10
306.1139449054
 20
11.5751300525
 30
0.0
  0
SPLINE
  5
2EB
100
AcDbEntity
  8
0
100
AcDbSpline
 62
5
  6
CONTINUOUS
 70
0
 71
3
 72
8
 73
4
 74
0
 42
0.0000001
 43
0.0000001
 44
0.0000000001
 40
0.0
 40
0.0
 40
0.0
 40
0.0
 40
1.0
 40
1.0
 40
1.0
 40
1.0
 10
306.1139449054
 20
11.5751300525
 30
0.0
 10
306.4481437349
 20
11.237207431
 30
0.0
 10
306.9022181462
 20
11.0715590952
 30
0.0
 10
307.4834335011
 20
11.0715590952
 30
0.0
  0
SPLINE
  5
2EC
100
AcDbEntity
  8
0
100
AcDbSpline
 62
5
  6
CONTINUOUS
 70
0
 71
3
 72
8
 73
4
 74
0
 42
0.0000001
 43
0.0000001
 44
0.0000000001
 40
0.0
 40
0.0
 40
0.0
 40
0.0
 40
1.0
 40
1.0
 40
1.0
 40
1.0
 10
307.4834335011
 20
11.0715590952
 30
0.0
 10
307.8575909507
 20
11.0715590952
 30
0.0
 10
308.1881570692
 20
11.1477573316
 30
0.0
 10
308.4707236377
 20
11.2914767509
 30
0.0
  0
SPLINE
  5
2ED
100
AcDbEntity
  8
0
100
AcDbSpline
 62
5
  6
CONTINUOUS
 70
0
 71
3
 72
8
 73
4
 74
0
 42
0.0000001
 43
0.0000001
 44
0.0000000001
 40
0.0
 40
0.0
 40
0.0
 40
0.0
 40
1.0
 40
1.0
 40
1.0
 40
1.0
 10
308.4707236377
 20
11.2914767509
 30
0.0
 10
308.7548419804
 20
11.4359854358
 30
0.0
 10
309.0127563589
 20
11.7341524476
 30
0.0
 10
309.2452425009
 20
12.1814029288
 30
0.0
  0
SPLINE
  5
2EE
100
AcDbEntity
  8
0
100
AcDbSpline
 62
5
  6
CONTINUOUS
 70
0
 71
3
 72
8
 73
4
 74
0
 42
0.0000001
 43
0.0000001
 44
0.0000000001
 40
0.0
 40
0.0
 40
0.0
 40
0.0
 40
1.0
 40
1.0
 40
1.0
 40
1.0
 10
308.2063200042
 20
12.1814029288
 30
0.0
 10
308.0719141577
 20
12.0488842892
 30
0.0
 10
307.959303578
 20
11.9660601032
 30
0.0
 10
307.8684887326
 20
11.9329304684
 30
0.0
  0
SPLINE
  5
2EF
100
AcDbEntity
  8
0
100
AcDbSpline
 62
5
  6
CONTINUOUS
 70
0
 71
3
 72
8
 73
4
 74
0
 42
0.0000001
 43
0.0000001
 44
0.0000000001
 40
0.0
 40
0.0
 40
0.0
 40
0.0
 40
1.0
 40
1.0
 40
1.0
 40
1.0
 10
307.8684887326
 20
11.9329304684
 30
0.0
 10
307.7776737497
 20
11.8998007834
 30
0.0
 10
307.6614306787
 20
11.8832359171
 30
0.0
 10
307.5197595306
 20
11.8832359171
 30
0.0
  0
SPLINE
  5
2F0
100
AcDbEntity
  8
0
100
AcDbSpline
 62
5
  6
CONTINUOUS
 70
0
 71
3
 72
8
 73
4
 74
0
 42
0.0000001
 43
0.0000001
 44
0.0000000001
 40
0.0
 40
0.0
 40
0.0
 40
0.0
 40
1.0
 40
1.0
 40
1.0
 40
1.0
 10
307.5197595306
 20
11.8832359171
 30
0.0
 10
306.9821353472
 20
11.8832359171
 30
0.0
 10
306.69152759
 20
12.15489923
 30
0.0
 10
306.6515690693
 20
12.7015387273
 30
0.0
  0
SPLINE
  5
2F1
100
AcDbEntity
  8
0
100
AcDbSpline
 62
5
  6
CONTINUOUS
 70
0
 71
3
 72
8
 73
4
 74
0
 42
0.0000001
 43
0.0000001
 44
0.0000000001
 40
0.0
 40
0.0
 40
0.0
 40
0.0
 40
1.0
 40
1.0
 40
1.0
 40
1.0
 10
309.260646698
 20
13.2199311408
 30
0.0
 10
309.223943864
 20
13.5662433803
 30
0.0
 10
309.1516216941
 20
13.8339879112
 30
0.0
 10
309.0410634473
 20
14.0230447729
 30
0.0
  0
SPLINE
  5
2F2
100
AcDbEntity
  8
0
100
AcDbSpline
 62
5
  6
CONTINUOUS
 70
0
 71
3
 72
8
 73
4
 74
0
 42
0.0000001
 43
0.0000001
 44
0.0000000001
 40
0.0
 40
0.0
 40
0.0
 40
0.0
 40
1.0
 40
1.0
 40
1.0
 40
1.0
 10
309.0410634473
 20
14.0230447729
 30
0.0
 10
308.8819828443
 20
14.2950758552
 30
0.0
 10
308.6676596373
 20
14.500479703
 30
0.0
 10
308.3988476254
 20
14.6363113594
 30
0.0
  0
SPLINE
  5
2F3
100
AcDbEntity
  8
0
100
AcDbSpline
 62
5
  6
CONTINUOUS
 70
0
 71
3
 72
8
 73
4
 74
0
 42
0.0000001
 43
0.0000001
 44
0.0000000001
 40
0.0
 40
0.0
 40
0.0
 40
0.0
 40
1.0
 40
1.0
 40
1.0
 40
1.0
 10
308.3988476254
 20
14.6363113594
 30
0.0
 10
308.1300356134
 20
14.7721430158
 30
0.0
 10
307.8176322704
 20
14.8417152071
 30
0.0
 10
307.4616379154
 20
14.8417152071
 30
0.0
  0
SPLINE
  5
2F4
100
AcDbEntity
  8
0
100
AcDbSpline
 62
5
  6
CONTINUOUS
 70
0
 71
3
 72
8
 73
4
 74
0
 42
0.0000001
 43
0.0000001
 44
0.0000000001
 40
0.0
 40
0.0
 40
0.0
 40
0.0
 40
1.0
 40
1.0
 40
1.0
 40
1.0
 10
307.4616379154
 20
14.8417152071
 30
0.0
 10
306.8549944833
 20
14.8417152071
 30
0.0
 10
306.3936547705
 20
14.6661279297
 30
0.0
 10
306.0812516409
 20
14.3149536258
 30
0.0
  0
SPLINE
  5
2F5
100
AcDbEntity
  8
0
100
AcDbSpline
 62
5
  6
CONTINUOUS
 70
0
 71
3
 72
8
 73
4
 74
0
 42
0.0000001
 43
0.0000001
 44
0.0000000001
 40
0.0
 40
0.0
 40
0.0
 40
0.0
 40
1.0
 40
1.0
 40
1.0
 40
1.0
 10
306.0812516409
 20
14.3149536258
 30
0.0
 10
305.8484415613
 20
14.0532503651
 30
0.0
 10
305.7023791882
 20
13.7253114705
 30
0.0
 10
305.6430644992
 20
13.3283946768
 30
0.0
  0
SPLINE
  5
2F6
100
AcDbEntity
  8
0
100
AcDbSpline
 62
5
  6
CONTINUOUS
 70
0
 71
3
 72
8
 73
4
 74
0
 42
0.0000001
 43
0.0000001
 44
0.0000000001
 40
0.0
 40
0.0
 40
0.0
 40
0.0
 40
1.0
 40
1.0
 40
1.0
 40
1.0
 10
305.0721393777
 20
14.3658292699
 30
0.0
 10
304.7791495633
 20
14.6819190311
 30
0.0
 10
304.3825415199
 20
14.841593008
 30
0.0
 10
303.8858884263
 20
14.841593008
 30
0.0
  0
SPLINE
  5
2F7
100
AcDbEntity
  8
0
100
AcDbSpline
 62
5
  6
CONTINUOUS
 70
0
 71
3
 72
8
 73
4
 74
0
 42
0.0000001
 43
0.0000001
 44
0.0000000001
 40
0.0
 40
0.0
 40
0.0
 40
0.0
 40
1.0
 40
1.0
 40
1.0
 40
1.0
 10
303.8858884263
 20
14.841593008
 30
0.0
 10
303.6679326731
 20
14.841593008
 30
0.0
 10
303.4785612424
 20
14.8090065288
 30
0.0
 10
303.3174861192
 20
14.7444341341
 30
0.0
  0
SPLINE
  5
2F8
100
AcDbEntity
  8
0
100
AcDbSpline
 62
5
  6
CONTINUOUS
 70
0
 71
3
 72
8
 73
4
 74
0
 42
0.0000001
 43
0.0000001
 44
0.0000000001
 40
0.0
 40
0.0
 40
0.0
 40
0.0
 40
1.0
 40
1.0
 40
1.0
 40
1.0
 10
303.3174861192
 20
14.7444341341
 30
0.0
 10
303.2165526849
 20
14.7039715634
 30
0.0
 10
303.1101015083
 20
14.636605523
 30
0.0
 10
302.9965359
 20
14.5421961959
 30
0.0
  0
SPLINE
  5
2F9
100
AcDbEntity
  8
0
100
AcDbSpline
 62
5
  6
CONTINUOUS
 70
0
 71
3
 72
8
 73
4
 74
0
 42
0.0000001
 43
0.0000001
 44
0.0000000001
 40
0.0
 40
0.0
 40
0.0
 40
0.0
 40
1.0
 40
1.0
 40
1.0
 40
1.0
 10
302.0499077253
 20
12.4903864011
 30
0.0
 10
302.0336606073
 20
12.5828795539
 30
0.0
 10
302.0048975931
 20
12.6675601326
 30
0.0
 10
301.9634940001
 20
12.7436271264
 30
0.0
  0
SPLINE
  5
2FA
100
AcDbEntity
  8
0
100
AcDbSpline
 62
5
  6
CONTINUOUS
 70
0
 71
3
 72
8
 73
4
 74
0
 42
0.0000001
 43
0.0000001
 44
0.0000000001
 40
0.0
 40
0.0
 40
0.0
 40
0.0
 40
1.0
 40
1.0
 40
1.0
 40
1.0
 10
301.9634940001
 20
12.7436271264
 30
0.0
 10
301.8623517571
 20
12.9294464192
 30
0.0
 10
301.6860647136
 20
13.0685909472
 30
0.0
 10
301.4282486325
 20
13.1642377157
 30
0.0
  0
SPLINE
  5
2FB
100
AcDbEntity
  8
0
100
AcDbSpline
 62
5
  6
CONTINUOUS
 70
0
 71
3
 72
8
 73
4
 74
0
 42
0.0000001
 43
0.0000001
 44
0.0000000001
 40
0.0
 40
0.0
 40
0.0
 40
0.0
 40
1.0
 40
1.0
 40
1.0
 40
1.0
 10
300.2588175792
 20
13.4528950892
 30
0.0
 10
300.1401628212
 20
13.4727728996
 30
0.0
 10
300.0418488873
 20
13.5059026322
 30
0.0
 10
299.9623035452
 20
13.5494340142
 30
0.0
  0
SPLINE
  5
2FC
100
AcDbEntity
  8
0
100
AcDbSpline
 62
5
  6
CONTINUOUS
 70
0
 71
3
 72
8
 73
4
 74
0
 42
0.0000001
 43
0.0000001
 44
0.0000000001
 40
0.0
 40
0.0
 40
0.0
 40
0.0
 40
1.0
 40
1.0
 40
1.0
 40
1.0
 10
299.9623035452
 20
13.5494340142
 30
0.0
 10
299.8723420689
 20
13.5986656508
 30
0.0
 10
299.8282703825
 20
13.6781767473
 30
0.0
 10
299.8282703825
 20
13.7908178673
 30
0.0
  0
SPLINE
  5
2FD
100
AcDbEntity
  8
0
100
AcDbSpline
 62
5
  6
CONTINUOUS
 70
0
 71
3
 72
8
 73
4
 74
0
 42
0.0000001
 43
0.0000001
 44
0.0000000001
 40
0.0
 40
0.0
 40
0.0
 40
0.0
 40
1.0
 40
1.0
 40
1.0
 40
1.0
 10
299.8282703825
 20
13.7908178673
 30
0.0
 10
299.8282703825
 20
13.8902066288
 30
0.0
 10
299.8757322559
 20
13.9664048538
 30
0.0
 10
299.9747881223
 20
14.0248193034
 30
0.0
  0
SPLINE
  5
2FE
100
AcDbEntity
  8
0
100
AcDbSpline
 62
5
  6
CONTINUOUS
 70
0
 71
3
 72
8
 73
4
 74
0
 42
0.0000001
 43
0.0000001
 44
0.0000000001
 40
0.0
 40
0.0
 40
0.0
 40
0.0
 40
1.0
 40
1.0
 40
1.0
 40
1.0
 10
299.9747881223
 20
14.0248193034
 30
0.0
 10
300.0723601236
 20
14.0823586998
 30
0.0
 10
300.1977951067
 20
14.112175561
 30
0.0
 10
300.346961101
 20
14.112175561
 30
0.0
  0
SPLINE
  5
2FF
100
AcDbEntity
  8
0
100
AcDbSpline
 62
5
  6
CONTINUOUS
 70
0
 71
3
 72
8
 73
4
 74
0
 42
0.0000001
 43
0.0000001
 44
0.0000000001
 40
0.0
 40
0.0
 40
0.0
 40
0.0
 40
1.0
 40
1.0
 40
1.0
 40
1.0
 10
300.346961101
 20
14.112175561
 30
0.0
 10
300.7130957871
 20
14.112175561
 30
0.0
 10
300.9232842539
 20
13.9531530771
 30
0.0
 10
300.9843065775
 20
13.6351084003
 30
0.0
  0
SPLINE
  5
300
100
AcDbEntity
  8
0
100
AcDbSpline
 62
5
  6
CONTINUOUS
 70
0
 71
3
 72
8
 73
4
 74
0
 42
0.0000001
 43
0.0000001
 44
0.0000000001
 40
0.0
 40
0.0
 40
0.0
 40
0.0
 40
1.0
 40
1.0
 40
1.0
 40
1.0
 10
301.953885317
 20
13.6351084003
 30
0.0
 10
301.8996432185
 20
14.4368462715
 30
0.0
 10
301.3640017139
 20
14.8377152071
 30
0.0
 10
300.346961101
 20
14.8377152071
 30
0.0
  0
ENDBLK
  5
301
100
AcDbEntity
  8
0
  6
BYBLOCK
 62
0
100
AcDbBlockEnd
  0
BLOCK
  5
302
100
AcDbEntity
  8
0
100
AcDbBlockBegin
  2
_FILLED
 70
64
 10
0.0
 20
0.0
  3
_FILLED
  1

  0
SOLID
  5
303
100
AcDbEntity
  8
0
  6
BYBLOCK
 62
0
100
AcDbTrace
 10
0.0
 20
0.0
 11
-1.0
 21
0.125
 12
-1.0
 22
-0.125
 13
-1.0
 23
-0.125
  0
ENDBLK
  5
304
100
AcDbEntity
  8
0
  6
BYBLOCK
 62
0
100
AcDbBlockEnd
  0
BLOCK
  5
305
100
AcDbEntity
  8
ZEICHNUNGSBEMASSUNGEN
100
AcDbBlockBegin
 62
2
  6
CONTINUOUS
  2
*D0
 70
65
 10
0.0
 20
0.0
  3
*D0
  1

  0
MTEXT
  5
306
100
AcDbEntity
  8
ZEICHNUNGSBEMASSUNGEN
100
AcDbMText
 62
5
  6
CONTINUOUS
  7
STANDARD
 71
2
 72
1
 10
213.3147760762
 20
267.3660757399
 30
0.0
 11
1.0
 21
0.0
 31
0.0
 44
0.9
  1
240
 40
2.5
 41
8.8392857143
  0
LINE
  5
307
100
AcDbEntity
  8
ZEICHNUNGSBEMASSUNGEN
100
AcDbLine
 62
2
  6
CONTINUOUS
 10
93.3147760762
 20
237.2410757399
 11
93.3147760762
 21
265.7410757399
  0
LINE
  5
308
100
AcDbEntity
  8
ZEICHNUNGSBEMASSUNGEN
100
AcDbLine
 62
2
  6
CONTINUOUS
 10
333.3147760762
 20
237.2410757399
 11
333.3147760762
 21
265.7410757399
  0
LINE
  5
309
100
AcDbEntity
  8
ZEICHNUNGSBEMASSUNGEN
100
AcDbLine
 62
2
  6
CONTINUOUS
 10
93.3147760762
 20
264.2410757399
 11
213.3147760762
 21
264.2410757399
  0
LINE
  5
30A
100
AcDbEntity
  8
ZEICHNUNGSBEMASSUNGEN
100
AcDbLine
 62
2
  6
CONTINUOUS
 10
333.3147760762
 20
264.2410757399
 11
213.3147760762
 21
264.2410757399
  0
INSERT
  5
30B
100
AcDbEntity
  8
ZEICHNUNGSBEMASSUNGEN
100
AcDbBlockReference
 62
2
  6
CONTINUOUS
  2
_FILLED
 10
93.3147760762
 20
264.2410757399
 41
3.5
 42
3.5
 43
3.5
 50
180.0
  0
INSERT
  5
30C
100
AcDbEntity
  8
ZEICHNUNGSBEMASSUNGEN
100
AcDbBlockReference
 62
2
  6
CONTINUOUS
  2
_FILLED
 10
333.3147760762
 20
264.2410757399
 41
3.5
 42
3.5
 43
3.5
  0
ENDBLK
  5
30D
100
AcDbEntity
  8
0
  6
BYBLOCK
 62
0
100
AcDbBlockEnd
  0
BLOCK
  5
30E
100
AcDbEntity
  8
ZEICHNUNGSBEMASSUNGEN
100
AcDbBlockBegin
 62
2
  6
CONTINUOUS
  2
*D1
 70
65
 10
0.0
 20
0.0
  3
*D1
  1

  0
MTEXT
  5
30F
100
AcDbEntity
  8
ZEICHNUNGSBEMASSUNGEN
100
AcDbMText
 62
5
  6
CONTINUOUS
  7
STANDARD
 71
2
 72
1
 10
213.3147760762
 20
82.3660757399
 30
0.0
 11
1.0
 21
0.0
 31
0.0
 44
0.9
  1
185
 40
2.5
 41
7.7678571429
  0
LINE
  5
310
100
AcDbEntity
  8
ZEICHNUNGSBEMASSUNGEN
100
AcDbLine
 62
2
  6
CONTINUOUS
 10
120.8147760762
 20
104.1410757399
 11
120.8147760762
 21
77.7410757399
  0
LINE
  5
311
100
AcDbEntity
  8
ZEICHNUNGSBEMASSUNGEN
100
AcDbLine
 62
2
  6
CONTINUOUS
 10
305.8147760762
 20
104.1410757399
 11
305.8147760762
 21
77.7410757399
  0
LINE
  5
312
100
AcDbEntity
  8
ZEICHNUNGSBEMASSUNGEN
100
AcDbLine
 62
2
  6
CONTINUOUS
 10
120.8147760762
 20
79.2410757399
 11
213.3147760762
 21
79.2410757399
  0
LINE
  5
313
100
AcDbEntity
  8
ZEICHNUNGSBEMASSUNGEN
100
AcDbLine
 62
2
  6
CONTINUOUS
 10
305.8147760762
 20
79.2410757399
 11
213.3147760762
 21
79.2410757399
  0
INSERT
  5
314
100
AcDbEntity
  8
ZEICHNUNGSBEMASSUNGEN
100
AcDbBlockReference
 62
2
  6
CONTINUOUS
  2
_FILLED
 10
120.8147760762
 20
79.2410757399
 41
3.5
 42
3.5
 43
3.5
 50
180.0
  0
INSERT
  5
315
100
AcDbEntity
  8
ZEICHNUNGSBEMASSUNGEN
100
AcDbBlockReference
 62
2
  6
CONTINUOUS
  2
_FILLED
 10
305.8147760762
 20
79.2410757399
 41
3.5
 42
3.5
 43
3.5
  0
ENDBLK
  5
316
100
AcDbEntity
  8
0
  6
BYBLOCK
 62
0
100
AcDbBlockEnd
  0
BLOCK
  5
317
100
AcDbEntity
  8
ZEICHNUNGSBEMASSUNGEN
100
AcDbBlockBegin
 62
2
  6
CONTINUOUS
  2
*D2
 70
65
 10
0.0
 20
0.0
  3
*D2
  1

  0
MTEXT
  5
318
100
AcDbEntity
  8
ZEICHNUNGSBEMASSUNGEN
100
AcDbMText
 62
5
  6
CONTINUOUS
  7
STANDARD
 71
2
 72
1
 10
340.1897760762
 20
171.7410757399
 30
0.0
 11
0.0
 21
1.0
 31
0.0
 44
0.9
  1
125
 40
2.5
 41
7.7678571429
  0
LINE
  5
319
100
AcDbEntity
  8
ZEICHNUNGSBEMASSUNGEN
100
AcDbLine
 62
2
  6
CONTINUOUS
 10
310.9147760762
 20
109.2410757399
 11
344.8147760762
 21
109.2410757399
  0
LINE
  5
31A
100
AcDbEntity
  8
ZEICHNUNGSBEMASSUNGEN
100
AcDbLine
 62
2
  6
CONTINUOUS
 10
310.9147760762
 20
234.2410757399
 11
344.8147760762
 21
234.2410757399
  0
LINE
  5
31B
100
AcDbEntity
  8
ZEICHNUNGSBEMASSUNGEN
100
AcDbLine
 62
2
  6
CONTINUOUS
 10
343.3147760762
 20
109.2410757399
 11
343.3147760762
 21
171.7410757399
  0
LINE
  5
31C
100
AcDbEntity
  8
ZEICHNUNGSBEMASSUNGEN
100
AcDbLine
 62
2
  6
CONTINUOUS
 10
343.3147760762
 20
234.2410757399
 11
343.3147760762
 21
171.7410757399
  0
INSERT
  5
31D
100
AcDbEntity
  8
ZEICHNUNGSBEMASSUNGEN
100
AcDbBlockReference
 62
2
  6
CONTINUOUS
  2
_FILLED
 10
343.3147760762
 20
109.2410757399
 41
3.5
 42
3.5
 43
3.5
 50
270.0
  0
INSERT
  5
31E
100
AcDbEntity
  8
ZEICHNUNGSBEMASSUNGEN
100
AcDbBlockReference
 62
2
  6
CONTINUOUS
  2
_FILLED
 10
343.3147760762
 20
234.2410757399
 41
3.5
 42
3.5
 43
3.5
 50
90.0
  0
ENDBLK
  5
31F
100
AcDbEntity
  8
0
  6
BYBLOCK
 62
0
100
AcDbBlockEnd
  0
BLOCK
  5
320
100
AcDbEntity
  8
ZEICHNUNGSBEMASSUNGEN
100
AcDbBlockBegin
 62
2
  6
CONTINUOUS
  2
*D3
 70
65
 10
0.0
 20
0.0
  3
*D3
  1

  0
MTEXT
  5
321
100
AcDbEntity
  8
ZEICHNUNGSBEMASSUNGEN
100
AcDbMText
 62
5
  6
CONTINUOUS
  7
STANDARD
 71
2
 72
1
 10
73.1897760762
 20
171.7410757399
 30
0.0
 11
0.0
 21
1.0
 31
0.0
 44
0.9
  1
165
 40
2.5
 41
7.7678571429
  0
LINE
  5
322
100
AcDbEntity
  8
ZEICHNUNGSBEMASSUNGEN
100
AcDbLine
 62
2
  6
CONTINUOUS
 10
110.3147760762
 20
254.2410757399
 11
74.8147760762
 21
254.2410757399
  0
LINE
  5
323
100
AcDbEntity
  8
ZEICHNUNGSBEMASSUNGEN
100
AcDbLine
 62
2
  6
CONTINUOUS
 10
110.3147760762
 20
89.2410757399
 11
74.8147760762
 21
89.2410757399
  0
LINE
  5
324
100
AcDbEntity
  8
ZEICHNUNGSBEMASSUNGEN
100
AcDbLine
 62
2
  6
CONTINUOUS
 10
76.3147760762
 20
254.2410757399
 11
76.3147760762
 21
171.7410757399
  0
LINE
  5
325
100
AcDbEntity
  8
ZEICHNUNGSBEMASSUNGEN
100
AcDbLine
 62
2
  6
CONTINUOUS
 10
76.3147760762
 20
89.2410757399
 11
76.3147760762
 21
171.7410757399
  0
INSERT
  5
326
100
AcDbEntity
  8
ZEICHNUNGSBEMASSUNGEN
100
AcDbBlockReference
 62
2
  6
CONTINUOUS
  2
_FILLED
 10
76.3147760762
 20
254.2410757399
 41
3.5
 42
3.5
 43
3.5
 50
90.0
  0
INSERT
  5
327
100
AcDbEntity
  8
ZEICHNUNGSBEMASSUNGEN
100
AcDbBlockReference
 62
2
  6
CONTINUOUS
  2
_FILLED
 10
76.3147760762
 20
89.2410757399
 41
3.5
 42
3.5
 43
3.5
 50
270.0
  0
ENDBLK
  5
328
100
AcDbEntity
  8
0
  6
BYBLOCK
 62
0
100
AcDbBlockEnd
  0
BLOCK
  5
329
100
AcDbEntity
  8
ZEICHNUNGSBEMASSUNGEN
100
AcDbBlockBegin
 62
2
  6
CONTINUOUS
  2
*D4
 70
65
 10
0.0
 20
0.0
  3
*D4
  1

  0
MTEXT
  5
32A
100
AcDbEntity
  8
ZEICHNUNGSBEMASSUNGEN
100
AcDbMText
 62
5
  6
CONTINUOUS
  7
STANDARD
 71
2
 72
1
 10
235.5647760762
 20
110.3607140912
 30
0.0
 11
1.0
 21
0.0
 31
0.0
 44
0.9
  1
44.5
 40
2.5
 41
10.7142857143
  0
LINE
  5
32B
100
AcDbEntity
  8
ZEICHNUNGSBEMASSUNGEN
100
AcDbLine
 62
2
  6
CONTINUOUS
 10
257.8147760762
 20
114.2410757399
 11
257.8147760762
 21
105.7357140912
  0
LINE
  5
32C
100
AcDbEntity
  8
ZEICHNUNGSBEMASSUNGEN
100
AcDbLine
 62
2
  6
CONTINUOUS
 10
213.3147760762
 20
107.2357140912
 11
235.5647760762
 21
107.2357140912
  0
LINE
  5
32D
100
AcDbEntity
  8
ZEICHNUNGSBEMASSUNGEN
100
AcDbLine
 62
2
  6
CONTINUOUS
 10
257.8147760762
 20
107.2357140912
 11
235.5647760762
 21
107.2357140912
  0
INSERT
  5
32E
100
AcDbEntity
  8
ZEICHNUNGSBEMASSUNGEN
100
AcDbBlockReference
 62
2
  6
CONTINUOUS
  2
_FILLED
 10
213.3147760762
 20
107.2357140912
 41
3.5
 42
3.5
 43
3.5
 50
180.0
  0
INSERT
  5
32F
100
AcDbEntity
  8
ZEICHNUNGSBEMASSUNGEN
100
AcDbBlockReference
 62
2
  6
CONTINUOUS
  2
_FILLED
 10
257.8147760762
 20
107.2357140912
 41
3.5
 42
3.5
 43
3.5
  0
ENDBLK
  5
330
100
AcDbEntity
  8
0
  6
BYBLOCK
 62
0
100
AcDbBlockEnd
  0
BLOCK
  5
331
100
AcDbEntity
  8
ZEICHNUNGSBEMASSUNGEN
100
AcDbBlockBegin
 62
2
  6
CONTINUOUS
  2
*D5
 70
65
 10
0.0
 20
0.0
  3
*D5
  1

  0
MTEXT
  5
332
100
AcDbEntity
  8
ZEICHNUNGSBEMASSUNGEN
100
AcDbMText
 62
5
  6
CONTINUOUS
  7
STANDARD
 71
2
 72
1
 10
288.3216629561
 20
155.7410757399
 30
0.0
 11
0.0
 21
1.0
 31
0.0
 44
0.9
  1
32
 40
2.5
 41
5.625
  0
LINE
  5
333
100
AcDbEntity
  8
ZEICHNUNGSBEMASSUNGEN
100
AcDbLine
 62
2
  6
CONTINUOUS
 10
283.3147760762
 20
139.7410757399
 11
292.9466629561
 21
139.7410757399
  0
LINE
  5
334
100
AcDbEntity
  8
ZEICHNUNGSBEMASSUNGEN
100
AcDbLine
 62
2
  6
CONTINUOUS
 10
291.4466629561
 20
139.7410757399
 11
291.4466629561
 21
155.7410757399
  0
LINE
  5
335
100
AcDbEntity
  8
ZEICHNUNGSBEMASSUNGEN
100
AcDbLine
 62
2
  6
CONTINUOUS
 10
291.4466629561
 20
171.7410757399
 11
291.4466629561
 21
155.7410757399
  0
INSERT
  5
336
100
AcDbEntity
  8
ZEICHNUNGSBEMASSUNGEN
100
AcDbBlockReference
 62
2
  6
CONTINUOUS
  2
_FILLED
 10
291.4466629561
 20
139.7410757399
 41
3.5
 42
3.5
 43
3.5
 50
270.0
  0
INSERT
  5
337
100
AcDbEntity
  8
ZEICHNUNGSBEMASSUNGEN
100
AcDbBlockReference
 62
2
  6
CONTINUOUS
  2
_FILLED
 10
291.4466629561
 20
171.7410757399
 41
3.5
 42
3.5
 43
3.5
 50
90.0
  0
ENDBLK
  5
338
100
AcDbEntity
  8
0
  6
BYBLOCK
 62
0
100
AcDbBlockEnd
  0
BLOCK
  5
339
100
AcDbEntity
  8
ZEICHNUNGSBEMASSUNGEN
100
AcDbBlockBegin
 62
2
  6
CONTINUOUS
  2
*D6
 70
65
 10
0.0
 20
0.0
  3
*D6
  1

  0
MTEXT
  5
33A
100
AcDbEntity
  8
ZEICHNUNGSBEMASSUNGEN
100
AcDbMText
 62
5
  6
CONTINUOUS
  7
TEXTSTYLE_2
 71
3
 72
1
 10
240.4822138122
 20
157.3868286372
 30
0.0
 11
0.7852658565
 21
-0.6191587314
 31
0.0
 44
0.9
  1
{\Fgdt;n}\Ftxt;45
 40
2.5
 41
10.625
  0
LINE
  5
33B
100
AcDbEntity
  8
ZEICHNUNGSBEMASSUNGEN
100
AcDbLine
 62
2
  6
CONTINUOUS
 10
240.1462943049
 20
153.6721471954
 11
257.8147760762
 21
139.7410757399
  0
LINE
  5
33C
100
AcDbEntity
  8
ZEICHNUNGSBEMASSUNGEN
100
AcDbLine
 62
2
  6
CONTINUOUS
 10
257.8147760762
 20
139.7410757399
 11
232.9850429599
 21
159.3185805161
  0
LINE
  5
33D
100
AcDbEntity
  8
ZEICHNUNGSBEMASSUNGEN
100
AcDbLine
 62
2
  6
CONTINUOUS
 10
275.4832578475
 20
125.8100042844
 11
257.8147760762
 21
139.7410757399
  0
INSERT
  5
33E
100
AcDbEntity
  8
ZEICHNUNGSBEMASSUNGEN
100
AcDbBlockReference
 62
2
  6
CONTINUOUS
  2
_FILLED
 10
240.1462943049
 20
153.6721471954
 41
3.5
 42
3.5
 43
3.5
 50
141.7452734262
  0
INSERT
  5
33F
100
AcDbEntity
  8
ZEICHNUNGSBEMASSUNGEN
100
AcDbBlockReference
 62
2
  6
CONTINUOUS
  2
_FILLED
 10
275.4832578475
 20
125.8100042844
 41
3.5
 42
3.5
 43
3.5
 50
321.7452734262
  0
ENDBLK
  5
340
100
AcDbEntity
  8
0
  6
BYBLOCK
 62
0
100
AcDbBlockEnd
  0
BLOCK
  5
341
100
AcDbEntity
  8
ZEICHNUNGSBEMASSUNGEN
100
AcDbBlockBegin
 62
2
  6
CONTINUOUS
  2
*D7
 70
65
 10
0.0
 20
0.0
  3
*D7
  1

  0
MTEXT
  5
342
100
AcDbEntity
  8
ZEICHNUNGSBEMASSUNGEN
100
AcDbMText
 62
5
  6
CONTINUOUS
  7
TEXTSTYLE_2
 71
1
 72
1
 10
127.7076477344
 20
116.7255691128
 30
0.0
 11
0.8706119075
 21
0.4919704326
 31
0.0
 44
0.9
  1
{\Fgdt;n}\Ftxt;4.2
 40
2.5
 41
13.0357142857
  0
LINE
  5
343
100
AcDbEntity
  8
ZEICHNUNGSBEMASSUNGEN
100
AcDbLine
 62
2
  6
CONTINUOUS
 10
122.6430610826
 20
110.2742136489
 11
120.8147760762
 21
109.2410757399
  0
LINE
  5
344
100
AcDbEntity
  8
ZEICHNUNGSBEMASSUNGEN
100
AcDbLine
 62
2
  6
CONTINUOUS
 10
120.8147760762
 20
109.2410757399
 11
136.8110873894
 21
118.2803642332
  0
LINE
  5
345
100
AcDbEntity
  8
ZEICHNUNGSBEMASSUNGEN
100
AcDbLine
 62
2
  6
CONTINUOUS
 10
118.9864910698
 20
108.207937831
 11
120.8147760762
 21
109.2410757399
  0
LINE
  5
346
100
AcDbEntity
  8
ZEICHNUNGSBEMASSUNGEN
100
AcDbLine
 62
2
  6
CONTINUOUS
 10
120.8147760762
 20
109.2410757399
 11
113.7628196258
 21
105.2561152356
  0
INSERT
  5
347
100
AcDbEntity
  8
ZEICHNUNGSBEMASSUNGEN
100
AcDbBlockReference
 62
2
  6
CONTINUOUS
  2
_FILLED
 10
122.6430610819
 20
110.2742136484
 41
3.5
 42
3.5
 43
3.5
 50
209.4697986489
  0
INSERT
  5
348
100
AcDbEntity
  8
ZEICHNUNGSBEMASSUNGEN
100
AcDbBlockReference
 62
2
  6
CONTINUOUS
  2
_FILLED
 10
118.9864910706
 20
108.2079378314
 41
3.5
 42
3.5
 43
3.5
 50
29.4697986489
  0
ENDBLK
  5
349
100
AcDbEntity
  8
0
  6
BYBLOCK
 62
0
100
AcDbBlockEnd
  0
BLOCK
  5
34A
100
AcDbEntity
  8
ZEICHNUNGSBEMASSUNGEN
100
AcDbBlockBegin
 62
2
  6
CONTINUOUS
  2
*D8
 70
65
 10
0.0
 20
0.0
  3
*D8
  1

  0
MTEXT
  5
34B
100
AcDbEntity
  8
ZEICHNUNGSBEMASSUNGEN
100
AcDbMText
 62
5
  6
CONTINUOUS
  7
STANDARD
 71
2
 72
1
 10
80.1897760762
 20
97.7410757399
 30
0.0
 11
0.0
 21
1.0
 31
0.0
 44
0.9
  1
17x45°
 40
2.5
 41
16.0178571429
  0
LINE
  5
34C
100
AcDbEntity
  8
ZEICHNUNGSBEMASSUNGEN
100
AcDbLine
 62
2
  6
CONTINUOUS
 10
110.3147760762
 20
89.2410757399
 11
81.8147760762
 21
89.2410757399
  0
LINE
  5
34D
100
AcDbEntity
  8
ZEICHNUNGSBEMASSUNGEN
100
AcDbLine
 62
2
  6
CONTINUOUS
 10
93.3147760762
 20
106.2410757399
 11
81.8147760762
 21
106.2410757399
  0
LINE
  5
34E
100
AcDbEntity
  8
ZEICHNUNGSBEMASSUNGEN
100
AcDbLine
 62
2
  6
CONTINUOUS
 10
83.3147760762
 20
89.2410757399
 11
83.3147760762
 21
97.7410757399
  0
LINE
  5
34F
100
AcDbEntity
  8
ZEICHNUNGSBEMASSUNGEN
100
AcDbLine
 62
2
  6
CONTINUOUS
 10
83.3147760762
 20
106.2410757399
 11
83.3147760762
 21
97.7410757399
  0
INSERT
  5
350
100
AcDbEntity
  8
ZEICHNUNGSBEMASSUNGEN
100
AcDbBlockReference
 62
2
  6
CONTINUOUS
  2
_FILLED
 10
83.3147760762
 20
89.2410757399
 41
3.5
 42
3.5
 43
3.5
 50
270.0
  0
INSERT
  5
351
100
AcDbEntity
  8
ZEICHNUNGSBEMASSUNGEN
100
AcDbBlockReference
 62
2
  6
CONTINUOUS
  2
_FILLED
 10
83.3147760762
 20
106.2410757399
 41
3.5
 42
3.5
 43
3.5
 50
90.0
  0
ENDBLK
  5
352
100
AcDbEntity
  8
0
  6
BYBLOCK
 62
0
100
AcDbBlockEnd
  0
BLOCK
  5
353
100
AcDbEntity
  8
0
100
AcDbBlockBegin
  2
*T1
 70
1
 10
0.0
 20
0.0
  3
*T1
  1

  0
LINE
  5
354
100
AcDbEntity
  8
0
100
AcDbLine
 62
2
  6
CONTINUOUS
 10
185.0
 20
0.0
 11
-0.0
 21
0.0
  0
LINE
  5
355
100
AcDbEntity
  8
0
100
AcDbLine
 62
2
  6
CONTINUOUS
 10
185.0
 20
0.0
 11
185.0
 21
52.5
  0
LINE
  5
356
100
AcDbEntity
  8
0
100
AcDbLine
 62
2
  6
CONTINUOUS
 10
185.0
 20
4.0
 11
-0.0
 21
4.0
  0
LINE
  5
357
100
AcDbEntity
  8
0
100
AcDbLine
 62
2
  6
CONTINUOUS
 10
185.0
 20
8.0
 11
172.0
 21
8.0
  0
LINE
  5
358
100
AcDbEntity
  8
0
100
AcDbLine
 62
2
  6
CONTINUOUS
 10
55.0
 20
8.0
 11
-0.0
 21
8.0
  0
LINE
  5
359
100
AcDbEntity
  8
0
100
AcDbLine
 62
2
  6
CONTINUOUS
 10
185.0
 20
16.0
 11
55.0
 21
16.0
  0
LINE
  5
35A
100
AcDbEntity
  8
0
100
AcDbLine
 62
2
  6
CONTINUOUS
 10
98.0
 20
20.0
 11
55.0
 21
20.0
  0
LINE
  5
35B
100
AcDbEntity
  8
0
100
AcDbLine
 62
2
  6
CONTINUOUS
 10
98.0
 20
24.0
 11
55.0
 21
24.0
  0
LINE
  5
35C
100
AcDbEntity
  8
0
100
AcDbLine
 62
2
  6
CONTINUOUS
 10
98.0
 20
28.0
 11
55.0
 21
28.0
  0
LINE
  5
35D
100
AcDbEntity
  8
0
100
AcDbLine
 62
2
  6
CONTINUOUS
 10
98.0
 20
32.0
 11
55.0
 21
32.0
  0
LINE
  5
35E
100
AcDbEntity
  8
0
100
AcDbLine
 62
2
  6
CONTINUOUS
 10
185.0
 20
36.0
 11
-0.0
 21
36.0
  0
LINE
  5
35F
100
AcDbEntity
  8
0
100
AcDbLine
 62
2
  6
CONTINUOUS
 10
185.0
 20
46.0
 11
98.0
 21
46.0
  0
LINE
  5
360
100
AcDbEntity
  8
0
100
AcDbLine
 62
2
  6
CONTINUOUS
 10
185.0
 20
52.5
 11
-0.0
 21
52.5
  0
LINE
  5
361
100
AcDbEntity
  8
0
100
AcDbLine
 62
2
  6
CONTINUOUS
 10
172.0
 20
4.0
 11
172.0
 21
16.0
  0
LINE
  5
362
100
AcDbEntity
  8
0
100
AcDbLine
 62
2
  6
CONTINUOUS
 10
142.0
 20
46.0
 11
142.0
 21
52.5
  0
LINE
  5
363
100
AcDbEntity
  8
0
100
AcDbLine
 62
2
  6
CONTINUOUS
 10
98.0
 20
0.0
 11
98.0
 21
52.5
  0
LINE
  5
364
100
AcDbEntity
  8
0
100
AcDbLine
 62
2
  6
CONTINUOUS
 10
80.0
 20
20.0
 11
80.0
 21
52.5
  0
LINE
  5
365
100
AcDbEntity
  8
0
100
AcDbLine
 62
2
  6
CONTINUOUS
 10
65.0
 20
16.0
 11
65.0
 21
36.0
  0
LINE
  5
366
100
AcDbEntity
  8
0
100
AcDbLine
 62
2
  6
CONTINUOUS
 10
55.0
 20
0.0
 11
55.0
 21
52.5
  0
LINE
  5
367
100
AcDbEntity
  8
0
100
AcDbLine
 62
2
  6
CONTINUOUS
 10
47.0
 20
0.0
 11
47.0
 21
8.0
  0
LINE
  5
368
100
AcDbEntity
  8
0
100
AcDbLine
 62
2
  6
CONTINUOUS
 10
34.0
 20
0.0
 11
34.0
 21
8.0
  0
LINE
  5
369
100
AcDbEntity
  8
0
100
AcDbLine
 62
2
  6
CONTINUOUS
 10
8.0
 20
0.0
 11
8.0
 21
8.0
  0
LINE
  5
36A
100
AcDbEntity
  8
0
100
AcDbLine
 62
2
  6
CONTINUOUS
 10
-0.0
 20
0.0
 11
-0.0
 21
52.5
  0
MTEXT
  5
36B
100
AcDbEntity
  8
0
100
AcDbMText
 62
5
  6
CONTINUOUS
  7
STANDARD
 71
1
 72
1
 10
99.225
 20
3.0
 30
0.0
 11
1.0
 21
0.0
 31
0.0
 44
0.9
  1
(Ersatz fuer:)
 40
2.0
 41
34.8571428571
  0
MTEXT
  5
36C
100
AcDbEntity
  8
0
100
AcDbMText
 62
5
  6
CONTINUOUS
  7
STANDARD
 71
1
 72
1
 10
56.225
 20
2.9
 30
0.0
 11
1.0
 21
0.0
 31
0.0
 44
0.9
  1
(Urspr.)
 40
1.8
 41
17.7428571429
  0
MTEXT
  5
36D
100
AcDbEntity
  8
0
100
AcDbMText
 62
5
  6
CONTINUOUS
  7
STANDARD
 71
1
 72
1
 10
48.225
 20
3.0
 30
0.0
 11
1.0
 21
0.0
 31
0.0
 44
0.9
  1
Name
 40
2.0
 41
12.5714285714
  0
MTEXT
  5
36E
100
AcDbEntity
  8
0
100
AcDbMText
 62
5
  6
CONTINUOUS
  7
STANDARD
 71
1
 72
1
 10
35.225
 20
3.0
 30
0.0
 11
1.0
 21
0.0
 31
0.0
 44
0.9
  1
Datum
 40
2.0
 41
15.3333333333
  0
MTEXT
  5
36F
100
AcDbEntity
  8
0
100
AcDbMText
 62
5
  6
CONTINUOUS
  7
STANDARD
 71
1
 72
1
 10
9.225
 20
3.0
 30
0.0
 11
1.0
 21
0.0
 31
0.0
 44
0.9
  1
Aenderung
 40
2.0
 41
26.0
  0
MTEXT
  5
370
100
AcDbEntity
  8
0
100
AcDbMText
 62
5
  6
CONTINUOUS
  7
STANDARD
 71
1
 72
1
 10
1.225
 20
3.0
 30
0.0
 11
1.0
 21
0.0
 31
0.0
 44
0.9
  1
Zust.
 40
2.0
 41
13.4285714286
  0
MTEXT
  5
371
100
AcDbEntity
  8
0
100
AcDbMText
 62
5
  6
CONTINUOUS
  7
STANDARD
 71
1
 72
1
 10
180.225
 20
7.0
 30
0.0
 11
1.0
 21
0.0
 31
0.0
 44
0.9
  1
Bl.
 40
2.0
 41
7.4285714286
  0
MTEXT
  5
372
100
AcDbEntity
  8
0
100
AcDbMText
 62
5
  6
CONTINUOUS
  7
TEXTSTYLE_3
 71
2
 72
1
 10
175.5
 20
7.0
 30
0.0
 11
1.0
 21
0.0
 31
0.0
 44
0.9
  1
A3
 40
2.0
 41
5.6
  0
MTEXT
  5
373
100
AcDbEntity
  8
0
100
AcDbMText
 62
7
  6
CONTINUOUS
  7
STANDARD
 71
1
 72
1
 10
99.225
 20
10.25
 30
0.0
 11
1.0
 21
0.0
 31
0.0
 44
0.9
  1
M-733-835-01
 40
3.5
 41
61.5
  0
MTEXT
  5
374
100
AcDbEntity
  8
0
100
AcDbMText
 62
5
  6
CONTINUOUS
  7
STANDARD
 71
1
 72
1
 10
48.225
 20
6.8
 30
0.0
 11
1.0
 21
0.0
 31
0.0
 44
0.9
  1
.
 40
1.6
 41
1.8285714286
  0
MTEXT
  5
375
100
AcDbEntity
  8
0
100
AcDbMText
 62
5
  6
CONTINUOUS
  7
STANDARD
 71
1
 72
1
 10
35.225
 20
6.8
 30
0.0
 11
1.0
 21
0.0
 31
0.0
 44
0.9
  1
.
 40
1.6
 41
1.8285714286
  0
MTEXT
  5
376
100
AcDbEntity
  8
0
100
AcDbMText
 62
5
  6
CONTINUOUS
  7
STANDARD
 71
1
 72
1
 10
9.225
 20
6.8
 30
0.0
 11
1.0
 21
0.0
 31
0.0
 44
0.9
  1
.
 40
1.6
 41
1.8285714286
  0
MTEXT
  5
377
100
AcDbEntity
  8
0
100
AcDbMText
 62
5
  6
CONTINUOUS
  7
STANDARD
 71
1
 72
1
 10
1.225
 20
6.8
 30
0.0
 11
1.0
 21
0.0
 31
0.0
 44
0.9
  1
0
 40
1.6
 41
2.5142857143
  0
MTEXT
  5
378
100
AcDbEntity
  8
0
100
AcDbMText
 62
5
  6
CONTINUOUS
  7
STANDARD
 71
1
 72
1
 10
173.225
 20
11.0
 30
0.0
 11
1.0
 21
0.0
 31
0.0
 44
0.9
  1
1
 40
2.0
 41
2.2857142857
  0
MTEXT
  5
379
100
AcDbEntity
  8
0
100
AcDbMText
 62
5
  6
CONTINUOUS
  7
STANDARD
 71
1
 72
1
 10
173.225
 20
15.0
 30
0.0
 11
1.0
 21
0.0
 31
0.0
 44
0.9
  1
Blatt
 40
2.0
 41
12.5714285714
  0
MTEXT
  5
37A
100
AcDbEntity
  8
0
100
AcDbMText
 62
5
  6
CONTINUOUS
  7
STANDARD
 71
1
 72
1
 10
99.225
 20
15.0
 30
0.0
 11
1.0
 21
0.0
 31
0.0
 44
0.9
  1
(Zeichnungsnummer)
 40
2.0
 41
49.8095238095
  0
MTEXT
  5
37B
100
AcDbEntity
  8
0
100
AcDbMText
 62
5
  6
CONTINUOUS
  7
STANDARD
 71
1
 72
1
 10
48.225
 20
31.6
 30
0.0
 11
1.0
 21
0.0
 31
0.0
 44
0.9
  1
 \P \P \P \P \P \P \P \P \P \P \P \P \P \P                                                                          MPI_AKIII_M-733-835-01
 40
1.6
 41
237.9428571429
  0
MTEXT
  5
37C
100
AcDbEntity
  8
0
100
AcDbMText
 62
5
  6
CONTINUOUS
  7
STANDARD
 71
1
 72
1
 10
35.225
 20
31.6
 30
0.0
 11
1.0
 21
0.0
 31
0.0
 44
0.9
  1
 \P \P \P \P \P \P \P \P \P \P \P \P \P \P                                                                 (Dateiname Zeichnung:)
 40
1.6
 41
210.5904761905
  0
MTEXT
  5
37D
100
AcDbEntity
  8
0
100
AcDbMText
 62
5
  6
CONTINUOUS
  7
STANDARD
 71
1
 72
1
 10
9.225
 20
31.6
 30
0.0
 11
1.0
 21
0.0
 31
0.0
 44
0.9
  1
 \P \P \P \P \P \P \P \P \P \P \P \P \P \P                                                     MPI_AKIII_M-733-835-01
 40
1.6
 41
185.1428571429
  0
MTEXT
  5
37E
100
AcDbEntity
  8
0
100
AcDbMText
 62
5
  6
CONTINUOUS
  7
STANDARD
 71
1
 72
1
 10
1.225
 20
31.6
 30
0.0
 11
1.0
 21
0.0
 31
0.0
 44
0.9
  1
 \P \P \P \P \P \P \P \P \P \P \P \P \P \P                                           (Dateiname Modell:)
 40
1.6
 41
148.1142857143
  0
MTEXT
  5
37F
100
AcDbEntity
  8
0
100
AcDbMText
 62
7
  6
CONTINUOUS
  7
STANDARD
 71
1
 72
1
 10
99.225
 20
22.25
 30
0.0
 11
1.0
 21
0.0
 31
0.0
 44
0.9
  1
AK3 MPI
 40
3.5
 41
38.0
  0
MTEXT
  5
380
100
AcDbEntity
  8
0
100
AcDbMText
 62
5
  6
CONTINUOUS
  7
STANDARD
 71
1
 72
1
 10
66.225
 20
19.0
 30
0.0
 11
1.0
 21
0.0
 31
0.0
 44
0.9
  1
Freigabe
 40
2.0
 41
21.8095238095
  0
MTEXT
  5
381
100
AcDbEntity
  8
0
100
AcDbMText
 62
5
  6
CONTINUOUS
  7
STANDARD
 71
1
 72
1
 10
56.225
 20
19.0
 30
0.0
 11
1.0
 21
0.0
 31
0.0
 44
0.9
  1
Status
 40
2.0
 41
16.2857142857
  0
MTEXT
  5
382
100
AcDbEntity
  8
0
100
AcDbMText
 62
5
  6
CONTINUOUS
  7
STANDARD
 71
1
 72
1
 10
1.225
 20
34.75
 30
0.0
 11
1.0
 21
0.0
 31
0.0
 44
0.9
  3
Weitergabe sowie Vervielfältigung dieses\PDokuments, Verwertung und Mitteilung \Pseines Inhalts sind verboten, soweit nicht \Pausdrücklich gestattet. Zuwiderhandlungen\Pverpflichten zu Schadenersatz. Alle Rechte\Pfür den Fall der Patent-, Gebrauchsmu
  1
ster- \Poder Geschmacksmustereintragung vorbehalten. 
 40
1.7
 41
106.9380952381
  0
MTEXT
  5
383
100
AcDbEntity
  8
0
100
AcDbMText
 62
5
  6
CONTINUOUS
  7
STANDARD
 71
1
 72
1
 10
56.225
 20
23.0
 30
0.0
 11
1.0
 21
0.0
 31
0.0
 44
0.9
  1
Vers.
 40
2.0
 41
13.9047619048
  0
MTEXT
  5
384
100
AcDbEntity
  8
0
100
AcDbMText
 62
7
  6
CONTINUOUS
  7
STANDARD
 71
1
 72
1
 10
99.225
 20
30.25
 30
0.0
 11
1.0
 21
0.0
 31
0.0
 44
0.9
  1
Massblatt
 40
3.5
 41
42.5
  0
MTEXT
  5
385
100
AcDbEntity
  8
0
100
AcDbMText
 62
5
  6
CONTINUOUS
  7
STANDARD
 71
1
 72
1
 10
81.225
 20
27.0
 30
0.0
 11
1.0
 21
0.0
 31
0.0
 44
0.9
  1
VBi
 40
2.0
 41
8.5714285714
  0
MTEXT
  5
386
100
AcDbEntity
  8
0
100
AcDbMText
 62
5
  6
CONTINUOUS
  7
STANDARD
 71
1
 72
1
 10
66.225
 20
27.0
 30
0.0
 11
1.0
 21
0.0
 31
0.0
 44
0.9
  1
11.03.15
 40
2.0
 41
20.2857142857
  0
MTEXT
  5
387
100
AcDbEntity
  8
0
100
AcDbMText
 62
5
  6
CONTINUOUS
  7
STANDARD
 71
1
 72
1
 10
56.225
 20
27.0
 30
0.0
 11
1.0
 21
0.0
 31
0.0
 44
0.9
  1
Gepr.
 40
2.0
 41
13.7142857143
  0
MTEXT
  5
388
100
AcDbEntity
  8
0
100
AcDbMText
 62
5
  6
CONTINUOUS
  7
STANDARD
 71
1
 72
1
 10
81.225
 20
31.0
 30
0.0
 11
1.0
 21
0.0
 31
0.0
 44
0.9
  1
UWi
 40
2.0
 41
10.6666666667
  0
MTEXT
  5
389
100
AcDbEntity
  8
0
100
AcDbMText
 62
5
  6
CONTINUOUS
  7
STANDARD
 71
1
 72
1
 10
66.225
 20
31.0
 30
0.0
 11
1.0
 21
0.0
 31
0.0
 44
0.9
  1
11.03.15
 40
2.0
 41
20.2857142857
  0
MTEXT
  5
38A
100
AcDbEntity
  8
0
100
AcDbMText
 62
5
  6
CONTINUOUS
  7
STANDARD
 71
1
 72
1
 10
56.225
 20
31.0
 30
0.0
 11
1.0
 21
0.0
 31
0.0
 44
0.9
  1
Bearb.
 40
2.0
 41
16.5714285714
  0
MTEXT
  5
38B
100
AcDbEntity
  8
0
100
AcDbMText
 62
5
  6
CONTINUOUS
  7
STANDARD
 71
1
 72
1
 10
99.225
 20
35.0
 30
0.0
 11
1.0
 21
0.0
 31
0.0
 44
0.9
  1
(Benennung)
 40
2.0
 41
29.4285714286
  0
MTEXT
  5
38C
100
AcDbEntity
  8
0
100
AcDbMText
 62
5
  6
CONTINUOUS
  7
STANDARD
 71
1
 72
1
 10
81.225
 20
35.0
 30
0.0
 11
1.0
 21
0.0
 31
0.0
 44
0.9
  1
Name
 40
2.0
 41
12.5714285714
  0
MTEXT
  5
38D
100
AcDbEntity
  8
0
100
AcDbMText
 62
5
  6
CONTINUOUS
  7
STANDARD
 71
1
 72
1
 10
66.225
 20
35.0
 30
0.0
 11
1.0
 21
0.0
 31
0.0
 44
0.9
  1
Datum
 40
2.0
 41
15.3333333333
  0
MTEXT
  5
38E
100
AcDbEntity
  8
0
100
AcDbMText
 62
5
  6
CONTINUOUS
  7
STANDARD
 71
1
 72
1
 10
1.225
 20
56.75
 30
0.0
 11
1.0
 21
0.0
 31
0.0
 44
2.46
  1
NE 037/15  \P \P 
 40
2.5
 41
40.9523809524
  0
MTEXT
  5
38F
100
AcDbEntity
  8
0
100
AcDbMText
 62
3
  6
CONTINUOUS
  7
STANDARD
 71
1
 72
1
 10
128.225
 20
42.25
 30
0.0
 11
1.0
 21
0.0
 31
0.0
 44
0.9
  1
Isolierstoff
 40
2.5
 41
37.9761904762
  0
MTEXT
  5
390
100
AcDbEntity
  8
0
100
AcDbMText
 62
5
  6
CONTINUOUS
  7
STANDARD
 71
1
 72
1
 10
99.225
 20
44.5
 30
0.0
 11
1.0
 21
0.0
 31
0.0
 44
0.9
  1
(Werkstoff,Halbzeug)
 40
2.0
 41
54.2857142857
  0
MTEXT
  5
391
100
AcDbEntity
  8
0
100
AcDbMText
 62
3
  6
CONTINUOUS
  7
STANDARD
 71
1
 72
1
 10
119.225
 20
51.0
 30
0.0
 11
1.0
 21
0.0
 31
0.0
 44
0.9
  1
1:1
 40
3.5
 41
10.5
  0
MTEXT
  5
392
100
AcDbEntity
  8
0
100
AcDbMText
 62
5
  6
CONTINUOUS
  7
STANDARD
 71
1
 72
1
 10
143.225
 20
51.9
 30
0.0
 11
1.0
 21
0.0
 31
0.0
 44
0.9
  1
(Volumen in cm³)
 40
1.8
 41
39.8057142857
  0
MTEXT
  5
393
100
AcDbEntity
  8
0
100
AcDbMText
 62
5
  6
CONTINUOUS
  7
STANDARD
 71
1
 72
1
 10
99.225
 20
52.0
 30
0.0
 11
1.0
 21
0.0
 31
0.0
 44
0.9
  1
Maßstab
 40
2.0
 41
19.9428571429
  0
MTEXT
  5
394
100
AcDbEntity
  8
0
100
AcDbMText
 62
5
  6
CONTINUOUS
  7
STANDARD
 71
1
 72
1
 10
81.225
 20
52.0
 30
0.0
 11
1.0
 21
0.0
 31
0.0
 44
0.9
  1
(Oberflaeche)
 40
2.0
 41
33.1428571429
  0
MTEXT
  5
395
100
AcDbEntity
  8
0
100
AcDbMText
 62
5
  6
CONTINUOUS
  7
STANDARD
 71
1
 72
1
 10
56.225
 20
52.0
 30
0.0
 11
1.0
 21
0.0
 31
0.0
 44
0.9
  1
(Zul.Abw.)
 40
2.0
 41
26.2857142857
  0
MTEXT
  5
396
100
AcDbEntity
  8
0
100
AcDbMText
 62
5
  6
CONTINUOUS
  7
STANDARD
 71
1
 72
1
 10
1.225
 20
52.0
 30
0.0
 11
1.0
 21
0.0
 31
0.0
 44
0.9
  1
(Verwendungsbereich)
 40
2.0
 41
54.8571428571
  0
ENDBLK
  5
397
100
AcDbEntity
  8
0
  6
BYBLOCK
 62
0
100
AcDbBlockEnd
  0
ENDSEC
  0
SECTION
  2
ENTITIES
  0
DIMENSION
  5
398
100
AcDbEntity
  8
ZEICHNUNGSBEMASSUNGEN
100
AcDbDimension
 62
2
  6
CONTINUOUS
  2
*D0
 10
333.3147760762
 20
264.2410757399
 11
213.3147760762
 21
264.2410757399
 70
160
 71
2
 42
240.0
  3
DIMSTYLE_1
100
AcDbAlignedDimension
 13
93.3147760762
 23
237.2410757399
 14
333.3147760762
 24
237.2410757399
100
AcDbRotatedDimension
  0
DIMENSION
  5
399
100
AcDbEntity
  8
ZEICHNUNGSBEMASSUNGEN
100
AcDbDimension
 62
2
  6
CONTINUOUS
  2
*D1
 10
305.8147760762
 20
79.2410757399
 11
213.3147760762
 21
79.2410757399
 70
160
 71
2
 42
185.0
  3
DIMSTYLE_1
100
AcDbAlignedDimension
 13
120.8147760762
 23
104.1410757399
 14
305.8147760762
 24
104.1410757399
100
AcDbRotatedDimension
  0
DIMENSION
  5
39A
100
AcDbEntity
  8
ZEICHNUNGSBEMASSUNGEN
100
AcDbDimension
 62
2
  6
CONTINUOUS
  2
*D2
 10
343.3147760762
 20
234.2410757399
 11
343.3147760762
 21
171.7410757399
 70
160
 71
2
 42
125.0
  3
DIMSTYLE_1
100
AcDbAlignedDimension
 13
310.9147760762
 23
109.2410757399
 14
310.9147760762
 24
234.2410757399
 50
90.0
100
AcDbRotatedDimension
  0
DIMENSION
  5
39B
100
AcDbEntity
  8
ZEICHNUNGSBEMASSUNGEN
100
AcDbDimension
 62
2
  6
CONTINUOUS
  2
*D3
 10
76.3147760762
 20
89.2410757399
 11
76.3147760762
 21
171.7410757399
 70
160
 71
2
 42
165.0
  3
DIMSTYLE_1
100
AcDbAlignedDimension
 13
110.3147760762
 23
254.2410757399
 14
110.3147760762
 24
89.2410757399
 50
270.0
100
AcDbRotatedDimension
  0
DIMENSION
  5
39C
100
AcDbEntity
  8
ZEICHNUNGSBEMASSUNGEN
100
AcDbDimension
 62
2
  6
CONTINUOUS
  2
*D4
 10
257.8147760762
 20
107.2357140912
 11
235.5647760762
 21
107.2357140912
 70
160
 71
2
 42
44.5
  3
DIMSTYLE_2
100
AcDbAlignedDimension
 13
213.3147760762
 23
86.2410757399
 14
257.8147760762
 24
114.2410757399
100
AcDbRotatedDimension
  0
DIMENSION
  5
39D
100
AcDbEntity
  8
ZEICHNUNGSBEMASSUNGEN
100
AcDbDimension
 62
2
  6
CONTINUOUS
  2
*D5
 10
291.4466629561
 20
171.7410757399
 11
291.4466629561
 21
155.7410757399
 70
160
 71
2
 42
32.0
  3
DIMSTYLE_2
100
AcDbAlignedDimension
 13
283.3147760762
 23
139.7410757399
 14
336.3147760762
 24
171.7410757399
 50
90.0
100
AcDbRotatedDimension
  0
DIMENSION
  5
39E
100
AcDbEntity
  8
ZEICHNUNGSBEMASSUNGEN
100
AcDbDimension
 62
2
  6
CONTINUOUS
  2
*D6
 10
240.1462943049
 20
153.6721471954
 11
236.9271154896
 21
158.5981001568
 70
163
 71
3
 42
45.0
  1
%%c<>
  3
DIMSTYLE_3
100
AcDbDiametricDimension
 15
275.4832578475
 25
125.8100042844
  0
DIMENSION
  5
39F
100
AcDbEntity
  8
ZEICHNUNGSBEMASSUNGEN
100
AcDbDimension
 62
2
  6
CONTINUOUS
  2
*D7
 10
122.6430610819
 20
110.2742136484
 11
132.1056268017
 21
117.7750328941
 70
163
 71
1
 42
4.2
  1
%%c<>
  3
DIMSTYLE_4
100
AcDbDiametricDimension
 15
118.9864910706
 25
108.2079378314
  0
DIMENSION
  5
3A0
100
AcDbEntity
  8
ZEICHNUNGSBEMASSUNGEN
100
AcDbDimension
 62
2
  6
CONTINUOUS
  2
*D8
 10
83.3147760762
 20
106.2410757399
 11
83.3147760762
 21
97.7410757399
 70
160
 71
2
 42
17.0
  1
<>x45°
  3
DIMSTYLE_5
100
AcDbAlignedDimension
 13
110.3147760762
 23
89.2410757399
 14
93.3147760762
 24
106.2410757399
 50
90.0
100
AcDbRotatedDimension
  0
INSERT
  5
3A1
100
AcDbEntity
  8
0
100
AcDbBlockReference
 62
5
  6
CONTINUOUS
  2
SYMBOL_27_BL0
 10
306.4999994719
 20
15.0062199685
  0
ACAD_TABLE
  5
3A2
100
AcDbEntity
  8
0
 62
2
  6
CONTINUOUS
100
AcDbBlockReference
  2
*T1
 10
229.9999994719
 20
5.0000004236
 30
0.0
100
AcDbTable
342
       3D9
343
219
 11
1.0
 21
0.0
 31
0.0
 90
6
 91
13
 92
17
 93
20
 94
0
 95
0
 96
0
 70
1
 41
0.0
141
4.0
141
4.0
141
4.0
141
4.0
141
4.0
141
4.0
141
4.0
141
4.0
141
4.0
141
5.0
141
5.0
141
3.5
141
3.0
142
8.0
142
26.0
142
13.0
142
8.0
142
10.0
142
15.0
142
18.0
142
11.0
142
9.0
142
9.0
142
6.0
142
9.0
142
11.0
142
10.0
142
9.0
142
7.0
142
6.0
171
1
172
0
173
0
174
0
175
1
176
1
 91
41
178
0
145
0.0
301
CELL_VALUE
 90
4
  1
Zust.
304
ACVALUE_END
170
4
140
2.0
 64
5
171
1
172
0
173
0
174
0
175
1
176
1
 91
41
178
0
145
0.0
301
CELL_VALUE
 90
4
  1
Aenderung
304
ACVALUE_END
170
4
140
2.0
 64
5
171
1
172
0
173
0
174
0
175
1
176
1
 91
41
178
0
145
0.0
301
CELL_VALUE
 90
4
  1
Datum
304
ACVALUE_END
170
4
140
2.0
 64
5
171
1
172
0
173
0
174
0
175
1
176
1
 91
41
178
0
145
0.0
301
CELL_VALUE
 90
4
  1
Name
304
ACVALUE_END
170
4
140
2.0
 64
5
171
1
172
0
173
0
174
0
175
1
176
1
 91
41
178
0
145
0.0
301
CELL_VALUE
 90
4
  1
(Urspr.)
304
ACVALUE_END
170
4
140
1.8
 64
5
171
1
172
0
173
0
174
0
175
2
176
1
 91
33
178
0
145
0.0
301
CELL_VALUE
 90
4
  1
 
304
ACVALUE_END
170
4
140
1.8
171
1
172
0
173
1
174
0
175
1
176
1
 91
1
178
0
145
0.0
170
4
171
1
172
0
173
0
174
0
175
1
176
1
 91
41
178
0
145
0.0
301
CELL_VALUE
 90
4
  1
(Ersatz fuer:)
304
ACVALUE_END
170
4
140
2.0
 64
5
171
1
172
0
173
0
174
0
175
1
176
1
 91
33
178
0
145
0.0
301
CELL_VALUE
 90
4
  1
 
304
ACVALUE_END
170
1
140
3.5
171
1
172
0
173
0
174
0
175
8
176
1
 91
33
178
0
145
0.0
301
CELL_VALUE
 90
4
  1
 
304
ACVALUE_END
170
1
140
3.5
171
1
172
0
173
1
174
0
175
1
176
1
 91
1
178
0
145
0.0
170
1
171
1
172
0
173
1
174
0
175
1
176
1
 91
1
178
0
145
0.0
170
1
171
1
172
0
173
1
174
0
175
1
176
1
 91
1
178
0
145
0.0
170
1
171
1
172
0
173
1
174
0
175
1
176
1
 91
1
178
0
145
0.0
170
1
171
1
172
0
173
1
174
0
175
1
176
1
 91
1
178
0
145
0.0
170
1
171
1
172
0
173
1
174
0
175
1
176
1
 91
1
178
0
145
0.0
170
1
171
1
172
0
173
1
174
0
175
1
176
1
 91
1
178
0
145
0.0
170
4
171
1
172
0
173
0
174
0
175
1
176
1
 91
41
178
0
145
0.0
301
CELL_VALUE
 90
4
  1
0
304
ACVALUE_END
170
4
140
1.6
 64
5
171
1
172
0
173
0
174
0
175
1
176
1
 91
41
178
0
145
0.0
301
CELL_VALUE
 90
4
  1
.
304
ACVALUE_END
170
4
140
1.6
 64
5
171
1
172
0
173
0
174
0
175
1
176
1
 91
41
178
0
145
0.0
301
CELL_VALUE
 90
4
  1
.
304
ACVALUE_END
170
4
140
1.6
 64
5
171
1
172
0
173
0
174
0
175
1
176
1
 91
41
178
0
145
0.0
301
CELL_VALUE
 90
4
  1
.
304
ACVALUE_END
170
4
140
1.6
 64
5
171
1
172
0
173
0
174
0
175
3
176
3
 91
33
178
0
145
0.0
301
CELL_VALUE
 90
4
  1
 {\Ftxt.shx;\W6.686451;\H6.000000; } 
304
ACVALUE_END
170
5
140
6.0
171
1
172
0
173
1
174
0
175
1
176
1
 91
1
178
0
145
0.0
170
1
171
1
172
0
173
1
174
0
175
1
176
1
 91
1
178
0
145
0.0
170
5
171
1
172
0
173
0
174
0
175
8
176
2
 91
33
178
0
145
0.0
301
CELL_VALUE
 90
4
  1
M-733-835-01
304
ACVALUE_END
170
1
140
3.5
171
1
172
0
173
1
174
0
175
1
176
1
 91
1
178
0
145
0.0
170
1
171
1
172
0
173
1
174
0
175
1
176
1
 91
1
178
0
145
0.0
170
1
171
1
172
0
173
1
174
0
175
1
176
1
 91
1
178
0
145
0.0
170
1
171
1
172
0
173
1
174
0
175
1
176
1
 91
1
178
0
145
0.0
170
1
171
1
172
0
173
1
174
0
175
1
176
1
 91
1
178
0
145
0.0
170
1
171
1
172
0
173
1
174
0
175
1
176
1
 91
1
178
0
145
0.0
170
1
171
1
172
0
173
1
174
0
175
1
176
1
 91
1
178
0
145
0.0
170
1
171
1
172
0
173
0
174
0
175
1
176
1
 91
41
178
0
145
0.0
301
CELL_VALUE
 90
4
  1
A3
304
ACVALUE_END
170
5
140
2.0
 64
5
171
1
172
0
173
0
174
0
175
1
176
1
 91
41
178
0
145
0.0
301
CELL_VALUE
 90
4
  1
Bl.
304
ACVALUE_END
170
4
140
2.0
 64
5
171
1
172
0
173
0
174
0
175
1
176
1
 91
41
178
0
145
0.0
301
CELL_VALUE
 90
4
  1
 
304
ACVALUE_END
170
4
140
2.0
 64
5
171
1
172
0
173
0
174
0
175
1
176
1
 91
33
178
0
145
0.0
301
CELL_VALUE
 90
4
  1
 
304
ACVALUE_END
170
1
140
3.5
171
1
172
0
173
0
174
0
175
1
176
1
 91
33
178
0
145
0.0
301
CELL_VALUE
 90
4
  1
 
304
ACVALUE_END
170
1
140
3.5
171
1
172
0
173
0
174
0
175
1
176
1
 91
33
178
0
145
0.0
301
CELL_VALUE
 90
4
  1
 
304
ACVALUE_END
170
1
140
3.5
171
1
172
0
173
1
174
0
175
1
176
1
 91
1
178
0
145
0.0
170
1
171
1
172
0
173
1
174
0
175
1
176
1
 91
1
178
0
145
0.0
170
1
171
1
172
0
173
1
174
0
175
1
176
1
 91
1
178
0
145
0.0
170
1
171
1
172
0
173
1
174
0
175
1
176
1
 91
1
178
0
145
0.0
170
1
171
1
172
0
173
1
174
0
175
1
176
1
 91
1
178
0
145
0.0
170
1
171
1
172
0
173
1
174
0
175
1
176
1
 91
1
178
0
145
0.0
170
1
171
1
172
0
173
1
174
0
175
1
176
1
 91
1
178
0
145
0.0
170
1
171
1
172
0
173
1
174
0
175
1
176
1
 91
1
178
0
145
0.0
170
1
171
1
172
0
173
1
174
0
175
1
176
1
 91
1
178
0
145
0.0
170
1
171
1
172
0
173
1
174
0
175
1
176
1
 91
1
178
0
145
0.0
170
1
171
1
172
0
173
1
174
0
175
1
176
1
 91
1
178
0
145
0.0
170
1
171
1
172
0
173
0
174
0
175
1
176
1
 91
41
178
0
145
0.0
301
CELL_VALUE
 90
4
  1
1
304
ACVALUE_END
170
4
140
2.0
 64
5
171
1
172
0
173
0
174
0
175
1
176
1
 91
33
178
0
145
0.0
301
CELL_VALUE
 90
4
  1
 
304
ACVALUE_END
170
1
140
3.5
171
1
172
0
173
0
174
0
175
1
176
1
 91
41
178
0
145
0.0
301
CELL_VALUE
 90
4
  1
 \P \P \P \P \P \P \P \P \P \P \P \P \P \P                                           (Dateiname Modell:)
304
ACVALUE_END
170
4
140
1.6
 64
5
171
1
172
0
173
0
174
0
175
1
176
1
 91
41
178
0
145
0.0
301
CELL_VALUE
 90
4
  1
 \P \P \P \P \P \P \P \P \P \P \P \P \P \P                                                     MPI_AKIII_M-733-835-01
304
ACVALUE_END
170
4
140
1.6
 64
5
171
1
172
0
173
0
174
0
175
1
176
1
 91
41
178
0
145
0.0
301
CELL_VALUE
 90
4
  1
 \P \P \P \P \P \P \P \P \P \P \P \P \P \P                                                                 (Dateiname Zeichnung:)
304
ACVALUE_END
170
4
140
1.6
 64
5
171
1
172
0
173
0
174
0
175
1
176
1
 91
41
178
0
145
0.0
301
CELL_VALUE
 90
4
  1
 \P \P \P \P \P \P \P \P \P \P \P \P \P \P                                                                          MPI_AKIII_M-733-835-01
304
ACVALUE_END
170
4
140
1.6
 64
5
171
1
172
0
173
1
174
0
175
1
176
1
 91
1
178
0
145
0.0
170
1
171
1
172
0
173
1
174
0
175
1
176
1
 91
1
178
0
145
0.0
170
1
171
1
172
0
173
1
174
0
175
1
176
1
 91
1
178
0
145
0.0
170
1
171
1
172
0
173
0
174
0
175
3
176
1
 91
33
178
0
145
0.0
301
CELL_VALUE
 90
4
  1
(Zeichnungsnummer)
304
ACVALUE_END
170
4
140
2.0
171
1
172
0
173
1
174
0
175
1
176
1
 91
1
178
0
145
0.0
170
1
171
1
172
0
173
1
174
0
175
1
176
1
 91
1
178
0
145
0.0
170
4
171
1
172
0
173
0
174
0
175
5
176
1
 91
33
178
0
145
0.0
301
CELL_VALUE
 90
4
  1
 
304
ACVALUE_END
170
1
140
3.5
171
1
172
0
173
1
174
0
175
1
176
1
 91
1
178
0
145
0.0
170
1
171
1
172
0
173
1
174
0
175
1
176
1
 91
1
178
0
145
0.0
170
1
171
1
172
0
173
1
174
0
175
1
176
1
 91
1
178
0
145
0.0
170
1
171
1
172
0
173
1
174
0
175
1
176
1
 91
1
178
0
145
0.0
170
1
171
1
172
0
173
0
174
0
175
1
176
1
 91
41
178
0
145
0.0
301
CELL_VALUE
 90
4
  1
Blatt
304
ACVALUE_END
170
4
140
2.0
 64
5
171
1
172
0
173
0
174
0
175
1
176
1
 91
33
178
0
145
0.0
301
CELL_VALUE
 90
4
  1
 
304
ACVALUE_END
170
1
140
3.5
171
1
172
0
173
0
174
0
175
1
176
1
 91
41
178
0
145
0.0
301
CELL_VALUE
 90
4
  2
Weitergabe sowie Vervielfältigung dieses\PDokuments, Verwertung und Mitteilung \Pseines Inhalts sind verboten, soweit nicht \Pausdrücklich gestattet. Zuwiderhandlungen\Pverpflichten zu Schadenersatz. Alle Rechte\Pfür den Fall der Patent-, Gebrauchsmu
  1
ster- \Poder Geschmacksmustereintragung vorbehalten. 
304
ACVALUE_END
170
7
140
1.7
 64
5
171
1
172
0
173
0
174
0
175
1
176
1
 91
33
178
0
145
0.0
301
CELL_VALUE
 90
4
  1
 
304
ACVALUE_END
170
1
140
3.5
171
1
172
0
173
0
174
0
175
1
176
1
 91
33
178
0
145
0.0
301
CELL_VALUE
 90
4
  1
 
304
ACVALUE_END
170
1
140
3.5
171
1
172
0
173
0
174
0
175
1
176
1
 91
41
178
0
145
0.0
301
CELL_VALUE
 90
4
  1
 
304
ACVALUE_END
170
4
140
3.5
 64
5
171
1
172
0
173
0
174
0
175
1
176
1
 91
41
178
0
145
0.0
301
CELL_VALUE
 90
4
  1
Status
304
ACVALUE_END
170
4
140
2.0
 64
5
171
1
172
0
173
0
174
0
175
2
176
1
 91
33
178
0
145
0.0
301
CELL_VALUE
 90
4
  1
Freigabe
304
ACVALUE_END
170
4
140
2.0
171
1
172
0
173
1
174
0
175
1
176
1
 91
1
178
0
145
0.0
170
4
171
1
172
0
173
0
174
0
175
10
176
2
 91
33
178
0
145
0.0
301
CELL_VALUE
 90
4
  1
AK3 MPI
304
ACVALUE_END
170
1
140
3.5
171
1
172
0
173
1
174
0
175
1
176
1
 91
1
178
0
145
0.0
170
1
171
1
172
0
173
1
174
0
175
1
176
1
 91
1
178
0
145
0.0
170
1
171
1
172
0
173
1
174
0
175
1
176
1
 91
1
178
0
145
0.0
170
1
171
1
172
0
173
1
174
0
175
1
176
1
 91
1
178
0
145
0.0
170
1
171
1
172
0
173
1
174
0
175
1
176
1
 91
1
178
0
145
0.0
170
1
171
1
172
0
173
1
174
0
175
1
176
1
 91
1
178
0
145
0.0
170
1
171
1
172
0
173
1
174
0
175
1
176
1
 91
1
178
0
145
0.0
170
1
171
1
172
0
173
1
174
0
175
1
176
1
 91
1
178
0
145
0.0
170
1
171
1
172
0
173
1
174
0
175
1
176
1
 91
1
178
0
145
0.0
170
1
171
1
172
0
173
0
174
0
175
1
176
1
 91
33
178
0
145
0.0
301
CELL_VALUE
 90
4
  1
 
304
ACVALUE_END
170
1
140
3.5
171
1
172
0
173
0
174
0
175
1
176
1
 91
33
178
0
145
0.0
301
CELL_VALUE
 90
4
  1
 
304
ACVALUE_END
170
1
140
3.5
171
1
172
0
173
0
174
0
175
1
176
1
 91
33
178
0
145
0.0
301
CELL_VALUE
 90
4
  1
 
304
ACVALUE_END
170
1
140
3.5
171
1
172
0
173
0
174
0
175
1
176
1
 91
33
178
0
145
0.0
301
CELL_VALUE
 90
4
  1
 
304
ACVALUE_END
170
1
140
3.5
171
1
172
0
173
0
174
0
175
1
176
1
 91
41
178
0
145
0.0
301
CELL_VALUE
 90
4
  1
Vers.
304
ACVALUE_END
170
4
140
2.0
 64
5
171
1
172
0
173
0
174
0
175
1
176
1
 91
41
178
0
145
0.0
301
CELL_VALUE
 90
4
  1
 
304
ACVALUE_END
170
5
140
3.5
 64
5
171
1
172
0
173
0
174
0
175
1
176
1
 91
33
178
0
145
0.0
301
CELL_VALUE
 90
4
  1
 
304
ACVALUE_END
170
1
140
3.5
171
1
172
0
173
1
174
0
175
1
176
1
 91
1
178
0
145
0.0
170
1
171
1
172
0
173
1
174
0
175
1
176
1
 91
1
178
0
145
0.0
170
1
171
1
172
0
173
1
174
0
175
1
176
1
 91
1
178
0
145
0.0
170
1
171
1
172
0
173
1
174
0
175
1
176
1
 91
1
178
0
145
0.0
170
1
171
1
172
0
173
1
174
0
175
1
176
1
 91
1
178
0
145
0.0
170
1
171
1
172
0
173
1
174
0
175
1
176
1
 91
1
178
0
145
0.0
170
1
171
1
172
0
173
1
174
0
175
1
176
1
 91
1
178
0
145
0.0
170
1
171
1
172
0
173
1
174
0
175
1
176
1
 91
1
178
0
145
0.0
170
1
171
1
172
0
173
1
174
0
175
1
176
1
 91
1
178
0
145
0.0
170
1
171
1
172
0
173
1
174
0
175
1
176
1
 91
1
178
0
145
0.0
170
1
171
1
172
0
173
0
174
0
175
1
176
1
 91
33
178
0
145
0.0
301
CELL_VALUE
 90
4
  1
 
304
ACVALUE_END
170
1
140
3.5
171
1
172
0
173
0
174
0
175
1
176
1
 91
33
178
0
145
0.0
301
CELL_VALUE
 90
4
  1
 
304
ACVALUE_END
170
1
140
3.5
171
1
172
0
173
0
174
0
175
1
176
1
 91
33
178
0
145
0.0
301
CELL_VALUE
 90
4
  1
 
304
ACVALUE_END
170
1
140
3.5
171
1
172
0
173
0
174
0
175
1
176
1
 91
33
178
0
145
0.0
301
CELL_VALUE
 90
4
  1
 
304
ACVALUE_END
170
1
140
3.5
171
1
172
0
173
0
174
0
175
1
176
1
 91
41
178
0
145
0.0
301
CELL_VALUE
 90
4
  1
Gepr.
304
ACVALUE_END
170
4
140
2.0
 64
5
171
1
172
0
173
0
174
0
175
1
176
1
 91
41
178
0
145
0.0
301
CELL_VALUE
 90
4
  1
11.03.15
304
ACVALUE_END
170
4
140
2.0
 64
5
171
1
172
0
173
0
174
0
175
1
176
1
 91
41
178
0
145
0.0
301
CELL_VALUE
 90
4
  1
VBi
304
ACVALUE_END
170
4
140
2.0
 64
5
171
1
172
0
173
0
174
0
175
10
176
2
 91
33
178
0
145
0.0
301
CELL_VALUE
 90
4
  1
Massblatt
304
ACVALUE_END
170
1
140
3.5
171
1
172
0
173
1
174
0
175
1
176
1
 91
1
178
0
145
0.0
170
1
171
1
172
0
173
1
174
0
175
1
176
1
 91
1
178
0
145
0.0
170
1
171
1
172
0
173
1
174
0
175
1
176
1
 91
1
178
0
145
0.0
170
1
171
1
172
0
173
1
174
0
175
1
176
1
 91
1
178
0
145
0.0
170
1
171
1
172
0
173
1
174
0
175
1
176
1
 91
1
178
0
145
0.0
170
1
171
1
172
0
173
1
174
0
175
1
176
1
 91
1
178
0
145
0.0
170
1
171
1
172
0
173
1
174
0
175
1
176
1
 91
1
178
0
145
0.0
170
1
171
1
172
0
173
1
174
0
175
1
176
1
 91
1
178
0
145
0.0
170
1
171
1
172
0
173
1
174
0
175
1
176
1
 91
1
178
0
145
0.0
170
1
171
1
172
0
173
0
174
0
175
4
176
1
 91
33
178
0
145
0.0
301
CELL_VALUE
 90
4
  1
 
304
ACVALUE_END
170
4
140
2.0
171
1
172
0
173
1
174
0
175
1
176
1
 91
1
178
0
145
0.0
170
1
171
1
172
0
173
1
174
0
175
1
176
1
 91
1
178
0
145
0.0
170
1
171
1
172
0
173
1
174
0
175
1
176
1
 91
1
178
0
145
0.0
170
4
171
1
172
0
173
0
174
0
175
1
176
1
 91
41
178
0
145
0.0
301
CELL_VALUE
 90
4
  1
Bearb.
304
ACVALUE_END
170
4
140
2.0
 64
5
171
1
172
0
173
0
174
0
175
1
176
1
 91
41
178
0
145
0.0
301
CELL_VALUE
 90
4
  1
11.03.15
304
ACVALUE_END
170
4
140
2.0
 64
5
171
1
172
0
173
0
174
0
175
1
176
1
 91
41
178
0
145
0.0
301
CELL_VALUE
 90
4
  1
UWi
304
ACVALUE_END
170
4
140
2.0
 64
5
171
1
172
0
173
1
174
0
175
1
176
1
 91
1
178
0
145
0.0
170
1
171
1
172
0
173
1
174
0
175
1
176
1
 91
1
178
0
145
0.0
170
1
171
1
172
0
173
1
174
0
175
1
176
1
 91
1
178
0
145
0.0
170
1
171
1
172
0
173
1
174
0
175
1
176
1
 91
1
178
0
145
0.0
170
1
171
1
172
0
173
1
174
0
175
1
176
1
 91
1
178
0
145
0.0
170
1
171
1
172
0
173
1
174
0
175
1
176
1
 91
1
178
0
145
0.0
170
1
171
1
172
0
173
1
174
0
175
1
176
1
 91
1
178
0
145
0.0
170
1
171
1
172
0
173
1
174
0
175
1
176
1
 91
1
178
0
145
0.0
170
1
171
1
172
0
173
1
174
0
175
1
176
1
 91
1
178
0
145
0.0
170
1
171
1
172
0
173
1
174
0
175
1
176
1
 91
1
178
0
145
0.0
170
1
171
1
172
0
173
0
174
0
175
1
176
1
 91
41
178
0
145
0.0
301
CELL_VALUE
 90
4
  1
NE 037/15  \P \P 
304
ACVALUE_END
170
7
140
2.5
 64
5
171
1
172
0
173
0
174
0
175
3
176
1
 91
33
178
0
145
0.0
301
CELL_VALUE
 90
4
  1
 
304
ACVALUE_END
170
1
140
3.5
171
1
172
0
173
1
174
0
175
1
176
1
 91
1
178
0
145
0.0
170
1
171
1
172
0
173
1
174
0
175
1
176
1
 91
1
178
0
145
0.0
170
1
171
1
172
0
173
0
174
0
175
1
176
1
 91
33
178
0
145
0.0
301
CELL_VALUE
 90
4
  1
 
304
ACVALUE_END
170
1
140
3.5
171
1
172
0
173
0
174
0
175
1
176
1
 91
41
178
0
145
0.0
301
CELL_VALUE
 90
4
  1
Datum
304
ACVALUE_END
170
4
140
2.0
 64
5
171
1
172
0
173
0
174
0
175
1
176
1
 91
41
178
0
145
0.0
301
CELL_VALUE
 90
4
  1
Name
304
ACVALUE_END
170
4
140
2.0
 64
5
171
1
172
0
173
0
174
0
175
2
176
1
 91
33
178
0
145
0.0
301
CELL_VALUE
 90
4
  1
(Benennung)
304
ACVALUE_END
170
4
140
2.0
171
1
172
0
173
1
174
0
175
1
176
1
 91
1
178
0
145
0.0
170
4
171
1
172
0
173
0
174
0
175
8
176
1
 91
33
178
0
145
0.0
301
CELL_VALUE
 90
4
  1
 
304
ACVALUE_END
170
1
140
3.5
171
1
172
0
173
1
174
0
175
1
176
1
 91
1
178
0
145
0.0
170
1
171
1
172
0
173
1
174
0
175
1
176
1
 91
1
178
0
145
0.0
170
1
171
1
172
0
173
1
174
0
175
1
176
1
 91
1
178
0
145
0.0
170
1
171
1
172
0
173
1
174
0
175
1
176
1
 91
1
178
0
145
0.0
170
1
171
1
172
0
173
1
174
0
175
1
176
1
 91
1
178
0
145
0.0
170
1
171
1
172
0
173
1
174
0
175
1
176
1
 91
1
178
0
145
0.0
170
1
171
1
172
0
173
1
174
0
175
1
176
1
 91
1
178
0
145
0.0
170
1
171
1
172
0
173
0
174
0
175
4
176
3
 91
33
178
0
145
0.0
301
CELL_VALUE
 90
4
  1
 
304
ACVALUE_END
170
1
140
3.5
171
1
172
0
173
1
174
0
175
1
176
1
 91
1
178
0
145
0.0
170
1
171
1
172
0
173
1
174
0
175
1
176
1
 91
1
178
0
145
0.0
170
1
171
1
172
0
173
1
174
0
175
1
176
1
 91
1
178
0
145
0.0
170
1
171
1
172
0
173
0
174
0
175
2
176
3
 91
33
178
0
145
0.0
301
CELL_VALUE
 90
4
  1
 
304
ACVALUE_END
170
5
140
3.5
171
1
172
0
173
1
174
0
175
1
176
1
 91
1
178
0
145
0.0
170
5
171
1
172
0
173
0
174
0
175
1
176
3
 91
33
178
0
145
0.0
301
CELL_VALUE
 90
4
  1
 
304
ACVALUE_END
170
1
140
3.5
171
1
172
0
173
0
174
0
175
3
176
1
 91
33
178
0
145
0.0
301
CELL_VALUE
 90
4
  1
 
304
ACVALUE_END
170
1
140
3.5
171
1
172
0
173
1
174
0
175
1
176
1
 91
1
178
0
145
0.0
170
1
171
1
172
0
173
1
174
0
175
1
176
1
 91
1
178
0
145
0.0
170
1
171
1
172
0
173
0
174
0
175
7
176
2
 91
33
178
0
145
0.0
301
CELL_VALUE
 90
4
  1
Isolierstoff
304
ACVALUE_END
170
4
140
2.5
171
1
172
0
173
1
174
0
175
1
176
1
 91
1
178
0
145
0.0
170
1
171
1
172
0
173
1
174
0
175
1
176
1
 91
1
178
0
145
0.0
170
1
171
1
172
0
173
1
174
0
175
1
176
1
 91
1
178
0
145
0.0
170
1
171
1
172
0
173
1
174
0
175
1
176
1
 91
1
178
0
145
0.0
170
1
171
1
172
0
173
1
174
0
175
1
176
1
 91
1
178
0
145
0.0
170
1
171
1
172
0
173
1
174
0
175
1
176
1
 91
1
178
0
145
0.0
170
4
171
1
172
0
173
1
174
0
175
1
176
1
 91
1
178
0
145
0.0
170
1
171
1
172
0
173
1
174
0
175
1
176
1
 91
1
178
0
145
0.0
170
1
171
1
172
0
173
1
174
0
175
1
176
1
 91
1
178
0
145
0.0
170
1
171
1
172
0
173
1
174
0
175
1
176
1
 91
1
178
0
145
0.0
170
1
171
1
172
0
173
1
174
0
175
1
176
1
 91
1
178
0
145
0.0
170
1
171
1
172
0
173
1
174
0
175
1
176
1
 91
1
178
0
145
0.0
170
1
171
1
172
0
173
1
174
0
175
1
176
1
 91
1
178
0
145
0.0
170
1
171
1
172
0
173
0
174
0
175
3
176
1
 91
33
178
0
145
0.0
301
CELL_VALUE
 90
4
  1
(Werkstoff,Halbzeug)
304
ACVALUE_END
170
4
140
2.0
171
1
172
0
173
1
174
0
175
1
176
1
 91
1
178
0
145
0.0
170
1
171
1
172
0
173
1
174
0
175
1
176
1
 91
1
178
0
145
0.0
170
4
171
1
172
0
173
1
174
0
175
1
176
1
 91
1
178
0
145
0.0
170
1
171
1
172
0
173
1
174
0
175
1
176
1
 91
1
178
0
145
0.0
170
1
171
1
172
0
173
1
174
0
175
1
176
1
 91
1
178
0
145
0.0
170
1
171
1
172
0
173
1
174
0
175
1
176
1
 91
1
178
0
145
0.0
170
1
171
1
172
0
173
1
174
0
175
1
176
1
 91
1
178
0
145
0.0
170
1
171
1
172
0
173
1
174
0
175
1
176
1
 91
1
178
0
145
0.0
170
1
171
1
172
0
173
1
174
0
175
1
176
1
 91
1
178
0
145
0.0
170
1
171
1
172
0
173
1
174
0
175
1
176
1
 91
1
178
0
145
0.0
170
1
171
1
172
0
173
1
174
0
175
1
176
1
 91
1
178
0
145
0.0
170
1
171
1
172
0
173
1
174
0
175
1
176
1
 91
1
178
0
145
0.0
170
1
171
1
172
0
173
1
174
0
175
1
176
1
 91
1
178
0
145
0.0
170
1
171
1
172
0
173
1
174
0
175
1
176
1
 91
1
178
0
145
0.0
170
1
171
1
172
0
173
1
174
0
175
1
176
1
 91
1
178
0
145
0.0
170
1
171
1
172
0
173
1
174
0
175
1
176
1
 91
1
178
0
145
0.0
170
1
171
1
172
0
173
0
174
0
175
2
176
1
 91
33
178
0
145
0.0
301
CELL_VALUE
 90
4
  1
 
304
ACVALUE_END
170
1
140
3.5
171
1
172
0
173
1
174
0
175
1
176
1
 91
1
178
0
145
0.0
170
1
171
1
172
0
173
0
174
0
175
3
176
2
 91
33
178
0
145
0.0
301
CELL_VALUE
 90
4
  1
1:1
304
ACVALUE_END
170
4
140
3.5
171
1
172
0
173
1
174
0
175
1
176
1
 91
1
178
0
145
0.0
170
1
171
1
172
0
173
1
174
0
175
1
176
1
 91
1
178
0
145
0.0
170
4
171
1
172
0
173
0
174
0
175
2
176
1
 91
33
178
0
145
0.0
301
CELL_VALUE
 90
4
  1
 
304
ACVALUE_END
170
1
140
3.5
171
1
172
0
173
1
174
0
175
1
176
1
 91
1
178
0
145
0.0
170
1
171
1
172
0
173
0
174
0
175
1
176
1
 91
33
178
0
145
0.0
301
CELL_VALUE
 90
4
  1
 
304
ACVALUE_END
170
1
140
3.5
171
1
172
0
173
0
174
0
175
2
176
1
 91
33
178
0
145
0.0
301
CELL_VALUE
 90
4
  1
 
304
ACVALUE_END
170
1
140
3.5
171
1
172
0
173
1
174
0
175
1
176
1
 91
1
178
0
145
0.0
170
1
171
1
172
0
173
0
174
0
175
4
176
1
 91
33
178
0
145
0.0
301
CELL_VALUE
 90
4
  1
(Verwendungsbereich)
304
ACVALUE_END
170
4
140
2.0
171
1
172
0
173
1
174
0
175
1
176
1
 91
1
178
0
145
0.0
170
1
171
1
172
0
173
1
174
0
175
1
176
1
 91
1
178
0
145
0.0
170
1
171
1
172
0
173
1
174
0
175
1
176
1
 91
1
178
0
145
0.0
170
4
171
1
172
0
173
0
174
0
175
2
176
1
 91
33
178
0
145
0.0
301
CELL_VALUE
 90
4
  1
(Zul.Abw.)
304
ACVALUE_END
170
4
140
2.0
171
1
172
0
173
1
174
0
175
1
176
1
 91
1
178
0
145
0.0
170
4
171
1
172
0
173
0
174
0
175
1
176
1
 91
41
178
0
145
0.0
301
CELL_VALUE
 90
4
  1
(Oberflaeche)
304
ACVALUE_END
170
4
140
2.0
 64
5
171
1
172
0
173
0
174
0
175
2
176
1
 91
33
178
0
145
0.0
301
CELL_VALUE
 90
4
  1
Maßstab
304
ACVALUE_END
170
4
140
2.0
171
1
172
0
173
1
174
0
175
1
176
1
 91
1
178
0
145
0.0
170
4
171
1
172
0
173
1
174
0
175
1
176
1
 91
1
178
0
145
0.0
170
1
171
1
172
0
173
1
174
0
175
1
176
1
 91
1
178
0
145
0.0
170
1
171
1
172
0
173
1
174
0
175
1
176
1
 91
1
178
0
145
0.0
170
1
171
1
172
0
173
0
174
0
175
2
176
1
 91
33
178
0
145
0.0
301
CELL_VALUE
 90
4
  1
(Volumen in cm³)
304
ACVALUE_END
170
4
140
1.8
171
1
172
0
173
1
174
0
175
1
176
1
 91
1
178
0
145
0.0
170
4
171
1
172
0
173
0
174
0
175
1
176
1
 91
33
178
0
145
0.0
301
CELL_VALUE
 90
4
  1
 
304
ACVALUE_END
170
1
140
3.5
171
1
172
0
173
0
174
0
175
2
176
1
 91
33
178
0
145
0.0
301
CELL_VALUE
 90
4
  1
 
304
ACVALUE_END
170
1
140
3.5
171
1
172
0
173
1
174
0
175
1
176
1
 91
1
178
0
145
0.0
170
1
  0
LINE
  5
3A3
100
AcDbEntity
  8
0
100
AcDbLine
 62
2
  6
CONTINUOUS
 10
0.0
 20
297.0
 11
0.0
 21
0.0
  0
LINE
  5
3A4
100
AcDbEntity
  8
0
100
AcDbLine
 62
7
  6
CONTINUOUS
 10
20.0
 20
292.0
 11
20.0
 21
5.0
  0
LINE
  5
3A5
100
AcDbEntity
  8
0
100
AcDbLine
 62
2
  6
CONTINUOUS
 10
0.0
 20
0.0
 11
420.0
 21
0.0
  0
LINE
  5
3A6
100
AcDbEntity
  8
0
100
AcDbLine
 62
7
  6
CONTINUOUS
 10
20.0
 20
5.0
 11
415.0
 21
5.0
  0
LINE
  5
3A7
100
AcDbEntity
  8
0
100
AcDbLine
 62
2
  6
CONTINUOUS
 10
125.0
 20
5.0
 11
125.0
 21
2.0
  0
LINE
  5
3A8
100
AcDbEntity
  8
0
100
AcDbLine
 62
2
  6
CONTINUOUS
 10
125.0
 20
292.0
 11
125.0
 21
295.0
  0
LINE
  5
3A9
100
AcDbEntity
  8
0
100
AcDbLine
 62
2
  6
CONTINUOUS
 10
3.5
 20
148.5
 11
0.0
 21
147.33
  0
LINE
  5
3AA
100
AcDbEntity
  8
0
100
AcDbLine
 62
2
  6
CONTINUOUS
 10
0.0
 20
149.67
 11
3.5
 21
148.5
  0
LINE
  5
3AB
100
AcDbEntity
  8
0
100
AcDbLine
 62
2
  6
CONTINUOUS
 10
230.0
 20
5.0
 11
230.0
 21
2.0
  0
LINE
  5
3AC
100
AcDbEntity
  8
0
100
AcDbLine
 62
2
  6
CONTINUOUS
 10
230.0
 20
292.0
 11
230.0
 21
295.0
  0
LINE
  5
3AD
100
AcDbEntity
  8
0
100
AcDbLine
 62
7
  6
CONTINUOUS
 10
415.0
 20
292.0
 11
20.0
 21
292.0
  0
LINE
  5
3AE
100
AcDbEntity
  8
0
100
AcDbLine
 62
2
  6
CONTINUOUS
 10
420.0
 20
297.0
 11
0.0
 21
297.0
  0
LINE
  5
3AF
100
AcDbEntity
  8
0
100
AcDbLine
 62
7
  6
CONTINUOUS
 10
415.0
 20
5.0
 11
415.0
 21
292.0
  0
LINE
  5
3B0
100
AcDbEntity
  8
0
100
AcDbLine
 62
2
  6
CONTINUOUS
 10
420.0
 20
0.0
 11
420.0
 21
297.0
  0
LINE
  5
3B1
100
AcDbEntity
  8
FASEN
100
AcDbLine
 62
7
  6
CONTINUOUS
 10
110.3147760762
 20
254.2410757399
 11
93.3147760762
 21
237.2410757399
  0
LINE
  5
3B2
100
AcDbEntity
  8
FASEN
100
AcDbLine
 62
7
  6
CONTINUOUS
 10
93.3147760762
 20
106.2410757399
 11
110.3147760762
 21
89.2410757399
  0
LINE
  5
3B3
100
AcDbEntity
  8
FASEN
100
AcDbLine
 62
7
  6
CONTINUOUS
 10
93.3147760762
 20
237.2410757399
 11
93.3147760762
 21
106.2410757399
  0
LINE
  5
3B4
100
AcDbEntity
  8
BEZUGSACHSEN
100
AcDbLine
 62
7
  6
CENTER
 10
120.8147760762
 20
234.2410757399
 11
120.8147760762
 21
229.1410757399
  0
LINE
  5
3B5
100
AcDbEntity
  8
BEZUGSACHSEN
100
AcDbLine
 62
7
  6
CENTER
 10
120.8147760762
 20
109.2410757399
 11
120.8147760762
 21
104.1410757399
  0
LINE
  5
3B6
100
AcDbEntity
  8
BEZUGSACHSEN
100
AcDbLine
 62
7
  6
CENTER
 10
120.8147760762
 20
109.2410757399
 11
120.8147760762
 21
114.3410757399
  0
LINE
  5
3B7
100
AcDbEntity
  8
BEZUGSACHSEN
100
AcDbLine
 62
7
  6
CENTER
 10
120.8147760762
 20
234.2410757399
 11
120.8147760762
 21
239.3410757399
  0
LINE
  5
3B8
100
AcDbEntity
  8
FASEN
100
AcDbLine
 62
7
  6
CONTINUOUS
 10
110.3147760762
 20
89.2410757399
 11
316.3147760762
 21
89.2410757399
  0
LINE
  5
3B9
100
AcDbEntity
  8
BEZUGSACHSEN
100
AcDbLine
 62
7
  6
CENTER
 10
305.8147760762
 20
109.2410757399
 11
300.7147760762
 21
109.2410757399
  0
LINE
  5
3BA
100
AcDbEntity
  8
BEZUGSACHSEN
100
AcDbLine
 62
7
  6
CENTER
 10
120.8147760762
 20
109.2410757399
 11
115.7147760762
 21
109.2410757399
  0
LINE
  5
3BB
100
AcDbEntity
  8
BEZUGSACHSEN
100
AcDbLine
 62
7
  6
CENTER
 10
120.8147760762
 20
109.2410757399
 11
125.9147760762
 21
109.2410757399
  0
LINE
  5
3BC
100
AcDbEntity
  8
BEZUGSACHSEN
100
AcDbLine
 62
7
  6
CENTER
 10
305.8147760762
 20
109.2410757399
 11
310.9147760762
 21
109.2410757399
  0
LINE
  5
3BD
100
AcDbEntity
  8
BEZUGSACHSEN
100
AcDbLine
 62
7
  6
CENTER
 10
257.8147760762
 20
139.7410757399
 11
232.3147760762
 21
139.7410757399
  0
LINE
  5
3BE
100
AcDbEntity
  8
BEZUGSACHSEN
100
AcDbLine
 62
7
  6
CENTER
 10
257.8147760762
 20
139.7410757399
 11
283.3147760762
 21
139.7410757399
  0
LINE
  5
3BF
100
AcDbEntity
  8
BG_STARTBEZUEGE
100
AcDbLine
 62
7
  6
CENTER
 10
213.3147760762
 20
86.2410757399
 11
213.3147760762
 21
257.2410757399
  0
LINE
  5
3C0
100
AcDbEntity
  8
TEIL_STARTBEZUEGE
100
AcDbLine
 62
7
  6
CENTER
 10
90.3147760762
 20
171.7410757399
 11
336.3147760762
 21
171.7410757399
  0
LINE
  5
3C1
100
AcDbEntity
  8
BEZUGSACHSEN
100
AcDbLine
 62
7
  6
CENTER
 10
257.8147760762
 20
139.7410757399
 11
257.8147760762
 21
114.2410757399
  0
LINE
  5
3C2
100
AcDbEntity
  8
BEZUGSACHSEN
100
AcDbLine
 62
7
  6
CENTER
 10
257.8147760762
 20
139.7410757399
 11
257.8147760762
 21
165.2410757399
  0
LINE
  5
3C3
100
AcDbEntity
  8
BEZUGSACHSEN
100
AcDbLine
 62
7
  6
CENTER
 10
305.8147760762
 20
234.2410757399
 11
300.7147760762
 21
234.2410757399
  0
LINE
  5
3C4
100
AcDbEntity
  8
BEZUGSACHSEN
100
AcDbLine
 62
7
  6
CENTER
 10
120.8147760762
 20
234.2410757399
 11
115.7147760762
 21
234.2410757399
  0
LINE
  5
3C5
100
AcDbEntity
  8
BEZUGSACHSEN
100
AcDbLine
 62
7
  6
CENTER
 10
120.8147760762
 20
234.2410757399
 11
125.9147760762
 21
234.2410757399
  0
LINE
  5
3C6
100
AcDbEntity
  8
BEZUGSACHSEN
100
AcDbLine
 62
7
  6
CENTER
 10
305.8147760762
 20
234.2410757399
 11
310.9147760762
 21
234.2410757399
  0
LINE
  5
3C7
100
AcDbEntity
  8
FASEN
100
AcDbLine
 62
7
  6
CONTINUOUS
 10
316.3147760762
 20
254.2410757399
 11
110.3147760762
 21
254.2410757399
  0
LINE
  5
3C8
100
AcDbEntity
  8
BEZUGSACHSEN
100
AcDbLine
 62
7
  6
CENTER
 10
305.8147760762
 20
234.2410757399
 11
305.8147760762
 21
229.1410757399
  0
LINE
  5
3C9
100
AcDbEntity
  8
BEZUGSACHSEN
100
AcDbLine
 62
7
  6
CENTER
 10
305.8147760762
 20
109.2410757399
 11
305.8147760762
 21
104.1410757399
  0
LINE
  5
3CA
100
AcDbEntity
  8
BEZUGSACHSEN
100
AcDbLine
 62
7
  6
CENTER
 10
305.8147760762
 20
109.2410757399
 11
305.8147760762
 21
114.3410757399
  0
LINE
  5
3CB
100
AcDbEntity
  8
BEZUGSACHSEN
100
AcDbLine
 62
7
  6
CENTER
 10
305.8147760762
 20
234.2410757399
 11
305.8147760762
 21
239.3410757399
  0
LINE
  5
3CC
100
AcDbEntity
  8
FASEN
100
AcDbLine
 62
7
  6
CONTINUOUS
 10
333.3147760762
 20
106.2410757399
 11
333.3147760762
 21
237.2410757399
  0
LINE
  5
3CD
100
AcDbEntity
  8
FASEN
100
AcDbLine
 62
7
  6
CONTINUOUS
 10
316.3147760762
 20
89.2410757399
 11
333.3147760762
 21
106.2410757399
  0
LINE
  5
3CE
100
AcDbEntity
  8
FASEN
100
AcDbLine
 62
7
  6
CONTINUOUS
 10
333.3147760762
 20
237.2410757399
 11
316.3147760762
 21
254.2410757399
  0
CIRCLE
  5
3CF
100
AcDbEntity
  8
BEZUGSACHSEN
100
AcDbCircle
 62
7
  6
CONTINUOUS
 10
257.8147760762
 20
139.7410757399
 40
22.5
  0
ARC
  5
3D0
100
AcDbEntity
  8
ZEICHNUNGSBEMASSUNGEN
100
AcDbCircle
 62
2
  6
CONTINUOUS
 10
257.8147760762
 20
139.7410757399
 40
22.5
100
AcDbArc
 50
321.7452734262
 51
360.0
  0
CIRCLE
  5
3D1
100
AcDbEntity
  8
BEZUGSACHSEN
100
AcDbCircle
 62
7
  6
CONTINUOUS
 10
305.8147760762
 20
234.2410757399
 40
2.1
  0
CIRCLE
  5
3D2
100
AcDbEntity
  8
BEZUGSACHSEN
100
AcDbCircle
 62
7
  6
CONTINUOUS
 10
305.8147760762
 20
109.2410757399
 40
2.1
  0
CIRCLE
  5
3D3
100
AcDbEntity
  8
BEZUGSACHSEN
100
AcDbCircle
 62
7
  6
CONTINUOUS
 10
120.8147760762
 20
234.2410757399
 40
2.1
  0
CIRCLE
  5
3D4
100
AcDbEntity
  8
BEZUGSACHSEN
100
AcDbCircle
 62
7
  6
CONTINUOUS
 10
120.8147760762
 20
109.2410757399
 40
2.1
  0
ENDSEC
  0
SECTION
  2
OBJECTS
  0
DICTIONARY
  5
C
100
AcDbDictionary
280
0
281
1
  3
ACAD_GROUP
350
D
  3
ACAD_MLINESTYLE
350
17
  3
ACAD_LAYOUT
350
1A
  3
ACAD_PLOTSETTINGS
350
19
  3
ACAD_PLOTSTYLENAME
350
E
  3
ACAD_TABLESTYLE
350
       3D5
  0
DICTIONARY
  5
D
102
{ACAD_REACTORS
330
C
102
}
100
AcDbDictionary
280
0
281
1
  0
ACDBDICTIONARYWDFLT
  5
E
102
{ACAD_REACTORS
330
C
102
}
100
AcDbDictionary
281
1
  3
Normal
350
F
100
AcDbDictionaryWithDefault
340
F
  0
DICTIONARY
  5
17
102
{ACAD_REACTORS
330
C
102
}
100
AcDbDictionary
280
0
281
1
  3
Standard
350
18
  0
DICTIONARY
  5
3D5
330
C
100
AcDbDictionary
281
1
  3
Standard
350
       3D8
  3
Standard1
350
       3D9
  0
DICTIONARY
  5
19
102
{ACAD_REACTORS
330
C
102
}
100
AcDbDictionary
281
1
  0
DICTIONARY
  5
1A
102
{ACAD_REACTORS
330
C
102
}
100
AcDbDictionary
281
1
  3
Model
350
3D6
  3
Layout1
350
3D7
  0
ACDBPLACEHOLDER
  5
F
102
{ACAD_REACTORS
330
E
102
}
  0
MLINESTYLE
  5
18
102
{ACAD_REACTORS
330
17
102
}
100
AcDbMlineStyle
  2
STANDARD
 70
0
  3

 62
256
 51
90.0
 52
90.0
 71
2
 49
0.5
 62
256
  6
BYLAYER
 49
-0.5
 62
256
  6
BYLAYER
  0
LAYOUT
  5
3D6
102
{ACAD_REACTORS
330
1A
102
}
100
AcDbPlotSettings
  1

  2
none_device
  4
ISO_A3_(420.00_x_297.00_MM)
  6

 40
0.0
 41
0.0
 42
0.0
 43
0.0
 44
420.0
 45
297.0
 46
0.0
 47
0.0
 48
0.0
 49
0.0
140
0.0
141
0.0
142
1.0
143
1.0
 70
1024
 72
1
 73
0
 74
0
  7

 75
0
147
1.0
148
0.0
149
0.0
100
AcDbLayout
  1
Model
 70
0
 71
0
 10
0.0
 20
0.0
 11
420.0
 21
297.0
 12
0.0
 22
0.0
 32
0.0
 14
0.0
 24
0.0
 34
0.0
 15
0.0
 25
0.0
 35
0.0
146
0.0
 13
0.0
 23
0.0
 33
0.0
 16
1.0
 26
0.0
 36
0.0
 17
0.0
 27
1.0
 37
0.0
 76
0
330
20C
345
0
346
0
  0
LAYOUT
  5
3D7
102
{ACAD_REACTORS
330
1A
102
}
100
AcDbPlotSettings
  1

  2
none_device
  4
ISO_A3_(420.00_x_297.00_MM)
  6

 40
0.0
 41
0.0
 42
0.0
 43
0.0
 44
420.0
 45
297.0
 46
0.0
 47
0.0
 48
0.0
 49
0.0
140
0.0
141
0.0
142
1.0
143
1.0
 70
0
 72
1
 73
0
 74
0
  7

 75
0
147
1.0
148
0.0
149
0.0
100
AcDbLayout
  1
Layout1
 70
0
 71
1
 10
0.0
 20
0.0
 11
420.0
 21
297.0
 12
0.0
 22
0.0
 32
0.0
 14
0.0
 24
0.0
 34
0.0
 15
0.0
 25
0.0
 35
0.0
146
0.0
 13
0.0
 23
0.0
 33
0.0
 16
1.0
 26
0.0
 36
0.0
 17
0.0
 27
1.0
 37
0.0
 76
0
330
20D
345
0
346
0
  0
TABLESTYLE
  5
3D8
102
{ACAD_REACTORS
330
3D5
102
}
330
3D5
100
AcDbTableStyle
  3
Standard
 70
0
 71
0
 40
0.06
 41
0.06
280
1
281
1
  7
Standard
140
0.18
170
1
 62
0
 63
7
283
0
  7
Standard
140
0.18
170
1
 62
0
 63
7
283
0
  7
Standard
140
0.18
170
1
 62
0
 63
7
283
0
  0
TABLESTYLE
  5
3D9
102
{ACAD_REACTORS
330
3D5
330
3A2
102
}
330
3D5
100
AcDbTableStyle
  3
Standard1
 70
1
 71
0
 40
0.06
 41
0.06
280
1
281
1
  7
Standard
140
0.18
170
1
 62
0
 63
7
283
0
  7
Standard
140
0.18
170
1
 62
0
 63
7
283
0
  7
Standard
140
0.18
170
1
 62
0
 63
7
283
0
  0
ENDSEC
  0
EOF
